<?xml version="1.0" standalone="no"?>
<!DOCTYPE svg PUBLIC "-//W3C//DTD SVG 1.1//EN" "http://www.w3.org/Graphics/SVG/1.1/DTD/svg11.dtd" >
<svg>
<metadata>
Created by FontForge 20120731 at Thu Aug  4 15:15:39 2016
 By ,,,
Copyright (c) The Font Bureau, Inc., 2003. All rights reserved.
</metadata>
<defs>
<font id="Antenna-ExtraLight" horiz-adv-x="590" >
  <font-face 
    font-family="Antenna ExtraLight"
    font-weight="200"
    font-stretch="normal"
    units-per-em="1000"
    panose-1="2 0 5 3 0 0 0 2 0 4"
    ascent="800"
    descent="-200"
    x-height="547"
    cap-height="741"
    bbox="-47 -217 1441 934"
    underline-thickness="50"
    underline-position="-50"
    unicode-range="U+0020-FB02"
  />
<missing-glyph horiz-adv-x="241" 
 />
    <glyph glyph-name="fi" unicode="fi" horiz-adv-x="576" 
d="M33 501v46h103v65q0 78 33 121t116 43h56v-46h-52q-57 0 -79.5 -31t-22.5 -87v-65h154v-46h-154v-501h-51v501h-103zM440 0v547h51v-547h-51zM440 627v97h51v-97h-51z" />
    <glyph glyph-name="fl" unicode="fl" horiz-adv-x="632" 
d="M33 501v46h103v65q0 78 33 121t116 43h56v-46h-52q-57 0 -79.5 -31t-22.5 -87v-65h154v-46h-154v-501h-51v501h-103zM543 -1q-61 0 -82 28t-21 92v657h51v-653q0 -45 12 -61t54 -16h25v-45q-12 -2 -39 -2z" />
    <glyph glyph-name="f_f_l" unicode="ffl" horiz-adv-x="937" 
d="M440 0v501h-253v-501h-51v501h-103v46h103v65q0 78 33 121t116 43h56v-46h-52q-57 0 -79.5 -31t-22.5 -87v-65h253v65q0 78 33 121t116 43h56v-46h-52q-57 0 -79.5 -31t-22.5 -87v-65h154v-46h-154v-501h-51zM847 -1q-61 0 -81.5 27.5t-20.5 92.5v657h50v-653
q0 -45 12 -61t54 -16h25v-45q-12 -2 -39 -2z" />
    <glyph glyph-name="f_f_i" unicode="ffi" horiz-adv-x="880" 
d="M440 0v501h-253v-501h-51v501h-103v46h103v65q0 78 33 121t116 43h56v-46h-52q-57 0 -79.5 -31t-22.5 -87v-65h253v65q0 78 33 121t116 43h56v-46h-52q-57 0 -79.5 -31t-22.5 -87v-65h154v-46h-154v-501h-51zM745 0v547h50v-547h-50zM744 627v97h52v-97h-52z" />
    <glyph glyph-name="f_j" unicode="fj" horiz-adv-x="576" 
d="M33 501v46h103v65q0 78 33 121t116 43h56v-46h-52q-57 0 -79.5 -31t-22.5 -87v-65h154v-46h-154v-501h-51v501h-103zM357 -166v43h5q49 1 63.5 19t14.5 71v580h51v-580q0 -76 -25 -104.5t-101 -28.5h-8zM440 627v97h51v-97h-51z" />
    <glyph glyph-name="f_f" unicode="ff" horiz-adv-x="670" 
d="M440 0v501h-253v-501h-51v501h-103v46h103v65q0 78 33 121t116 43h56v-46h-52q-57 0 -79.5 -31t-22.5 -87v-65h253v65q0 78 33 121t116 43h56v-46h-52q-57 0 -79.5 -31t-22.5 -87v-65h154v-46h-154v-501h-51z" />
    <glyph glyph-name=".notdef" horiz-adv-x="241" 
 />
    <glyph glyph-name=".null" horiz-adv-x="0" 
 />
    <glyph glyph-name="nonmarkingreturn" horiz-adv-x="333" 
 />
    <glyph glyph-name="space" unicode=" " horiz-adv-x="241" 
 />
    <glyph glyph-name="space" unicode="&#xa0;" horiz-adv-x="241" 
 />
    <glyph glyph-name="exclam" unicode="!" horiz-adv-x="345" 
d="M135 0v87h75v-87h-75zM151 194l-7 547h57l-6 -547h-44z" />
    <glyph glyph-name="quotedbl" unicode="&#x22;" horiz-adv-x="449" 
d="M108 475l-6 266h52l-5 -266h-41zM300 475l-5 266h52l-5 -266h-42z" />
    <glyph glyph-name="numbersign" unicode="#" horiz-adv-x="716" 
d="M147 0l46 237h-124v47h133l34 180h-167v47h177l44 230h50l-45 -230h180l45 230h49l-44 -230h123v-47h-133l-34 -180h167v-47h-176l-46 -237h-49l45 237h-179l-46 -237h-50zM249 282h184l36 184h-185z" />
    <glyph glyph-name="dollar" unicode="$" horiz-adv-x="657" 
d="M309 -94v94q-138 3 -234 70l26 39q92 -62 210 -64v327q-49 11 -80 22t-62.5 31t-46.5 53t-15 79q0 91 48 135.5t154 48.5v63h48v-63q112 -5 180 -53l-26 -39q-59 41 -156 46v-286q43 -10 70.5 -18.5t59.5 -24.5t50 -36t30.5 -51t12.5 -72q0 -197 -221 -207v-94h-48z
M528 205q0 71 -41 103t-132 54v-317q89 4 131 43.5t42 116.5zM157 559q0 -62 37 -91t117 -49v276q-83 -3 -118.5 -36t-35.5 -100z" />
    <glyph glyph-name="percent" unicode="%" horiz-adv-x="1067" 
d="M236 292q-188 0 -188 230q0 231 188 231q98 0 142.5 -62.5t44.5 -168.5q0 -230 -187 -230zM236 335q139 0 139 187t-139 187q-140 0 -140 -187t140 -187zM831 -11q-187 0 -187 231t187 231t187 -231t-187 -231zM831 33q139 0 139 187t-139 187t-139 -187t139 -187zM302 0
l412 742h50l-413 -742h-49z" />
    <glyph glyph-name="ampersand" unicode="&#x26;" horiz-adv-x="770" 
d="M284 -11q-129 0 -181 49.5t-52 155.5q0 76 42.5 128.5t116.5 99.5q-41 104 -41 188q0 143 142 143q69 0 100.5 -34t31.5 -109q0 -29 -11 -55.5t-23.5 -44t-41.5 -40.5t-43.5 -33t-52.5 -34q63 -134 157 -224q25 -25 63 -55q36 45 63 115.5t55 182.5l46 -11
q-58 -228 -126 -314q78 -50 171 -50h12v-47h-13q-56 0 -102 11.5t-101 48.5q-79 -71 -212 -71zM284 34q109 0 173 55q-35 28 -66 59q-102 99 -164 233q-59 -40 -92.5 -84t-33.5 -103q0 -83 38 -121.5t145 -38.5zM218 610q0 -74 36 -168q34 22 55 37t43.5 36.5t33 45
t10.5 49.5q0 51 -19.5 74.5t-65.5 23.5q-93 0 -93 -98z" />
    <glyph glyph-name="quotesingle" unicode="'" horiz-adv-x="257" 
d="M108 475l-6 267h52l-5 -267h-41z" />
    <glyph glyph-name="parenleft" unicode="(" horiz-adv-x="463" 
d="M334 -181q-87 72 -151 196.5t-64 283.5q0 157 65 285.5t150 199.5l36 -30q-82 -72 -141 -188t-59 -267t59.5 -266t140.5 -184z" />
    <glyph glyph-name="parenright" unicode=")" horiz-adv-x="463" 
d="M129 -181l-35 30q82 72 140.5 185.5t58.5 264.5t-59.5 269t-139.5 186l35 30q86 -72 150.5 -198.5t64.5 -286.5q0 -157 -64.5 -282.5t-150.5 -197.5z" />
    <glyph glyph-name="asterisk" unicode="*" horiz-adv-x="565" 
d="M261 278l5 200l-173 -103l-21 38l175 96l-175 98l21 38l173 -104l-5 201h43l-5 -201l173 104l21 -38l-175 -98l175 -96l-21 -38l-173 103l5 -200h-43z" />
    <glyph glyph-name="plus" unicode="+" horiz-adv-x="688" 
d="M318 121v208h-208v48h208v208h51v-208h208v-48h-208v-208h-51z" />
    <glyph glyph-name="comma" unicode="," horiz-adv-x="223" 
d="M82 -107l-17 29q28 16 38 32t10 46h-39v88h75v-70q0 -52 -14 -78t-53 -47z" />
    <glyph glyph-name="hyphen" unicode="-" horiz-adv-x="460" 
d="M57 277v47h347v-47h-347z" />
    <glyph glyph-name="hyphen" unicode="&#xad;" horiz-adv-x="460" 
d="M57 277v47h347v-47h-347z" />
    <glyph glyph-name="period" unicode="." horiz-adv-x="223" 
d="M74 0v88h75v-88h-75z" />
    <glyph glyph-name="slash" unicode="/" horiz-adv-x="470" 
d="M0 0l416 741h54l-416 -741h-54z" />
    <glyph glyph-name="zero" unicode="0" horiz-adv-x="716" 
d="M358 -11q-84 0 -139.5 28.5t-83.5 84t-38.5 118.5t-10.5 152q0 70 6 123t23.5 103.5t47 83t79 52t116.5 19.5t116.5 -19.5t79 -52t47.5 -83t24 -103.5t6 -123t-6 -123t-24 -104t-47.5 -83.5t-79 -52.5t-116.5 -20zM358 36q56 0 96.5 18t64.5 46.5t37.5 74t18 91
t4.5 106.5t-4.5 106.5t-18 90.5t-37.5 73t-64.5 45.5t-96.5 17.5t-96.5 -17.5t-64 -45.5t-37 -73t-18 -90t-4.5 -107q0 -61 4.5 -106.5t18 -91t37 -74t64 -46.5t96.5 -18z" />
    <glyph glyph-name="one" unicode="1" horiz-adv-x="360" 
d="M185 0v693h-146v48h196v-741h-50z" />
    <glyph glyph-name="two" unicode="2" horiz-adv-x="572" 
d="M40 0v44l251 264q90 94 123.5 147t33.5 124q0 66 -39.5 96.5t-127.5 30.5q-119 0 -200 -43l-23 42q93 48 226 48q109 0 162 -41t53 -130q0 -79 -37.5 -142t-130.5 -159l-224 -235h405v-46h-472z" />
    <glyph glyph-name="three" unicode="3" horiz-adv-x="600" 
d="M284 -12q-138 0 -256 65l26 41q109 -59 229 -59q103 0 148.5 39.5t45.5 137.5q0 90 -44 131t-171 41h-93v46h91q110 0 153 33.5t43 112.5q0 72 -40.5 101.5t-133.5 29.5q-120 0 -207 -53l-28 39q99 60 238 60q115 0 168 -39t53 -132q0 -142 -110 -172q72 -15 101.5 -63.5
t29.5 -136.5q0 -122 -58.5 -172t-184.5 -50z" />
    <glyph glyph-name="four" unicode="4" horiz-adv-x="657" 
d="M59 199v43l334 499h57l-334 -497h310l10 257h39v-257h144v-45h-144v-199h-49v199h-367z" />
    <glyph glyph-name="five" unicode="5" horiz-adv-x="625" 
d="M307 -11q-124 0 -243 64l26 41q114 -59 216 -59q49 0 85.5 9t67.5 30.5t47 61.5t16 98q0 111 -53 156.5t-150 45.5q-106 0 -187 -41l-44 13l19 333h414v-46h-369l-14 -251q66 38 189 38q117 0 181.5 -55.5t64.5 -191.5q0 -139 -69.5 -192.5t-196.5 -53.5z" />
    <glyph glyph-name="six" unicode="6" horiz-adv-x="677" 
d="M357 -11q-140 0 -207.5 69.5t-67.5 234.5q0 123 19 204t65.5 137.5t125.5 81.5t199 25h19v-46h-20q-99 0 -166 -18t-105.5 -57.5t-57 -89.5t-25.5 -124q60 91 231 91q134 0 189 -64.5t55 -188.5q0 -125 -57.5 -190t-196.5 -65zM358 34q112 0 157 53.5t45 155.5t-46 155.5
t-156 53.5q-100 0 -162.5 -46t-62.5 -134q0 -129 57.5 -183.5t167.5 -54.5z" />
    <glyph glyph-name="seven" unicode="7" horiz-adv-x="517" 
d="M144 0l306 695h-424v46h478v-42l-308 -699h-52z" />
    <glyph glyph-name="eight" unicode="8" horiz-adv-x="682" 
d="M342 -12q-269 0 -269 219q0 168 139 202q-114 30 -114 164q0 89 56.5 134.5t187.5 45.5q130 0 186 -45.5t56 -134.5q0 -135 -113 -164q138 -37 138 -202q0 -219 -267 -219zM342 33q216 0 216 176q0 177 -216 177q-111 0 -164.5 -43.5t-53.5 -133.5q0 -89 53.5 -132.5
t164.5 -43.5zM342 429q102 0 147 34.5t45 105.5q0 70 -45 105t-147 35q-104 0 -149 -34.5t-45 -105.5t45 -105.5t149 -34.5z" />
    <glyph glyph-name="nine" unicode="9" horiz-adv-x="677" 
d="M167 0v46h21q99 0 166 18.5t105.5 58t56.5 89.5t25 124q-60 -91 -230 -91q-134 0 -189 64.5t-55 188.5q0 125 57.5 190t196.5 65q140 0 207.5 -69.5t67.5 -234.5q0 -122 -19 -203t-65.5 -138.5t-125.5 -82.5t-199 -25h-20zM320 289q100 0 162.5 46.5t62.5 133.5
q0 129 -57.5 183.5t-166.5 54.5q-112 0 -158 -53.5t-46 -155.5t46 -155.5t157 -53.5z" />
    <glyph glyph-name="colon" unicode=":" horiz-adv-x="243" 
d="M84 0v87h75v-87h-75zM84 461v86h75v-86h-75z" />
    <glyph glyph-name="semicolon" unicode=";" horiz-adv-x="243" 
d="M92 -107l-17 29q28 16 38 32t10 46h-39v87h75v-69q0 -55 -13.5 -79t-53.5 -46zM84 461v86h75v-86h-75z" />
    <glyph glyph-name="less" unicode="&#x3c;" horiz-adv-x="688" 
d="M546 101l-444 224v41l444 223v-47l-394 -196l394 -196v-49z" />
    <glyph glyph-name="equal" unicode="=" horiz-adv-x="688" 
d="M116 226v47h456v-47h-456zM116 432v47h456v-47h-456z" />
    <glyph glyph-name="greater" unicode="&#x3e;" horiz-adv-x="688" 
d="M142 101v49l394 195l-394 196v48l444 -223v-41z" />
    <glyph glyph-name="question" unicode="?" horiz-adv-x="652" 
d="M281 191q-9 98 11.5 144t94.5 91q75 46 100 74.5t25 80.5q0 42 -12 67t-53 41.5t-116 16.5q-121 0 -219 -53l-23 44q98 56 244 56q92 0 144 -21t69.5 -55.5t17.5 -92.5q0 -67 -32 -105t-108 -84q-67 -41 -83.5 -77t-9.5 -127h-50zM268 0v83h75v-83h-75z" />
    <glyph glyph-name="at" unicode="@" horiz-adv-x="1092" 
d="M550 -165q-452 0 -452 458q0 223 111.5 342t336.5 119q226 0 338.5 -119t112.5 -342q0 -147 -32.5 -202.5t-126.5 -55.5q-40 0 -66 9t-38 26t-16 32t-4 36q-25 -54 -72 -77.5t-128 -23.5q-215 0 -215 260q0 259 216 259q82 0 128 -23t66 -75l10 96l36 -2v-388
q0 -20 3 -34t11 -29t27.5 -23t48.5 -8q70 0 92 47.5t22 175.5q0 206 -102 315.5t-311 109.5q-208 0 -309 -109.5t-101 -315.5q0 -204 101.5 -313t312.5 -109q161 0 281 59l17 -31q-126 -64 -298 -64zM520 79q96 0 141.5 48.5t45.5 169.5q0 120 -45 167t-142 47
q-90 0 -131.5 -54.5t-41.5 -159.5q0 -218 173 -218z" />
    <glyph glyph-name="A" unicode="A" horiz-adv-x="705" 
d="M30 0l297 746h51l297 -746h-53l-75 188h-391l-74 -188h-52zM174 236h355l-177 445z" />
    <glyph glyph-name="B" unicode="B" horiz-adv-x="688" 
d="M91 0v741h315q222 0 222 -176q0 -140 -110 -174q128 -32 128 -185q0 -108 -61.5 -157t-187.5 -49h-306zM143 48h258q99 0 146 38.5t47 122.5q0 80 -47 117.5t-149 37.5h-255v-316zM143 412h264q93 0 130.5 39.5t37.5 108.5q0 133 -168 133h-264v-281z" />
    <glyph glyph-name="C" unicode="C" horiz-adv-x="710" 
d="M407 -11q-360 0 -360 382q0 190 93 286t269 96q155 0 250 -88l-36 -37q-85 76 -214 76q-152 0 -230.5 -83.5t-78.5 -249.5q0 -333 309 -333q135 0 219 78l36 -36q-95 -91 -257 -91z" />
    <glyph glyph-name="D" unicode="D" horiz-adv-x="742" 
d="M91 0v741h235q207 0 288.5 -80t81.5 -290q0 -205 -88.5 -288t-297.5 -83h-219zM144 48h168q182 0 256.5 72.5t74.5 250.5q0 183 -67.5 252t-249.5 69h-182v-644z" />
    <glyph glyph-name="E" unicode="E" horiz-adv-x="624" 
d="M91 0v741h470v-49h-417v-280h407v-49h-407v-315h421v-48h-474z" />
    <glyph glyph-name="F" unicode="F" horiz-adv-x="585" 
d="M91 0v741h458v-49h-405v-283h396v-49h-396v-360h-53z" />
    <glyph glyph-name="G" unicode="G" horiz-adv-x="771" 
d="M407 -11q-188 0 -274 94t-86 288q0 382 362 382q164 0 260 -87l-36 -38q-88 76 -224 76q-310 0 -310 -333q0 -172 73.5 -253.5t235.5 -81.5q80 0 132 17.5t80 55.5t38.5 86.5t10.5 122.5v27h-264v49h316v-69q0 -65 -6.5 -111.5t-26 -91.5t-53.5 -72.5t-91 -44t-137 -16.5
z" />
    <glyph glyph-name="H" unicode="H" horiz-adv-x="765" 
d="M91 0v741h53v-327h478v327h52v-741h-52v363h-478v-363h-53z" />
    <glyph glyph-name="I" unicode="I" horiz-adv-x="247" 
d="M98 0v741h51v-741h-51z" />
    <glyph glyph-name="J" unicode="J" horiz-adv-x="383" 
d="M97 -1q-38 0 -64 1v48h60q82 0 117 36.5t35 117.5v539h52v-540q0 -105 -48 -153.5t-152 -48.5z" />
    <glyph glyph-name="K" unicode="K" horiz-adv-x="687" 
d="M586 0l-282 415l-161 -172v-243h-52v741h52v-432l404 432h62l-271 -290l307 -451h-59z" />
    <glyph glyph-name="L" unicode="L" horiz-adv-x="578" 
d="M91 0v741h53v-693h403v-48h-456z" />
    <glyph glyph-name="M" unicode="M" horiz-adv-x="895" 
d="M91 0v741h67l289 -671l291 671h66v-741h-52v655l-283 -655h-45l-283 655v-655h-50z" />
    <glyph glyph-name="N" unicode="N" horiz-adv-x="766" 
d="M91 0v741h59l475 -657v657h50v-741h-48l-486 671v-671h-50z" />
    <glyph glyph-name="O" unicode="O" horiz-adv-x="828" 
d="M413 -12q-366 0 -366 383q0 382 366 382q368 0 368 -382q0 -383 -368 -383zM413 37q316 0 316 334q0 333 -316 333q-313 0 -313 -333q0 -334 313 -334z" />
    <glyph glyph-name="P" unicode="P" horiz-adv-x="690" 
d="M91 0v741h315q119 0 178 -50t59 -162q0 -223 -235 -223h-265v-306h-52zM143 354h266q90 0 136 41t46 133q0 91 -45.5 128t-140.5 37h-262v-339z" />
    <glyph glyph-name="Q" unicode="Q" horiz-adv-x="828" 
d="M536 -177q-99 0 -134 36.5t-28 132.5q-166 9 -246.5 102t-80.5 277q0 195 90 288.5t276 93.5q187 0 277.5 -93.5t90.5 -288.5q0 -192 -88 -285t-271 -95q-5 -72 17.5 -96.5t96.5 -24.5h72v-46q-8 -1 -72 -1zM413 37q163 0 239.5 83t76.5 251q0 167 -76.5 250t-239.5 83
q-162 0 -237.5 -83t-75.5 -250q0 -168 75.5 -251t237.5 -83z" />
    <glyph glyph-name="R" unicode="R" horiz-adv-x="702" 
d="M570 0l-190 321h-237v-321h-52v741h309q118 0 178 -50t60 -158q0 -197 -202 -211l190 -322h-56zM143 369h259q89 0 136 36.5t47 125.5t-47 125.5t-139 36.5h-256v-324z" />
    <glyph glyph-name="S" unicode="S" horiz-adv-x="691" 
d="M340 -10q-165 0 -293 82l27 40q117 -74 265 -74q119 0 177.5 39.5t58.5 124.5q0 34 -11 59t-29 40.5t-47.5 26.5t-61 18.5t-74.5 15.5q-8 1 -12 2q-55 10 -85 17.5t-68.5 22.5t-57.5 34t-33 50.5t-14 74.5q0 99 64 144.5t192 45.5q151 0 245 -64l-28 -42q-86 58 -217 58
q-105 0 -154.5 -33.5t-49.5 -107.5q0 -31 10.5 -54t26 -37.5t47 -26.5t58.5 -18.5t76 -16.5q45 -9 65.5 -13t57 -13.5t53 -18.5t39.5 -24.5t33 -34t18 -45t8 -59.5q0 -213 -286 -213z" />
    <glyph glyph-name="T" unicode="T" horiz-adv-x="683" 
d="M316 0v692h-285v49h622v-49h-285v-692h-52z" />
    <glyph glyph-name="U" unicode="U" horiz-adv-x="767" 
d="M382 -12q-90 0 -150.5 21t-91 61.5t-42.5 85.5t-12 106v479h53v-475q0 -110 52 -169.5t191 -59.5q140 0 194 59.5t54 169.5v475h51v-479q0 -61 -12.5 -106.5t-44 -85.5t-92.5 -61t-150 -21z" />
    <glyph glyph-name="V" unicode="V" horiz-adv-x="705" 
d="M327 -5l-296 746h54l269 -679l268 679h53l-297 -746h-51z" />
    <glyph glyph-name="W" unicode="W" horiz-adv-x="1084" 
d="M283 -5l-243 746h54l212 -655l216 655h43l215 -655l213 655h51l-243 -746h-43l-216 658l-215 -658h-44z" />
    <glyph glyph-name="X" unicode="X" horiz-adv-x="687" 
d="M586 0l-244 348l-241 -348h-57l271 387l-248 354h57l221 -316l220 316h57l-250 -355l272 -386h-58z" />
    <glyph glyph-name="Y" unicode="Y" horiz-adv-x="682" 
d="M315 0v297l-298 444h57l268 -397l268 397h55l-298 -442v-299h-52z" />
    <glyph glyph-name="Z" unicode="Z" horiz-adv-x="657" 
d="M49 0v43l482 649h-465v49h528v-45l-481 -648h492v-48h-556z" />
    <glyph glyph-name="bracketleft" unicode="[" horiz-adv-x="446" 
d="M128 -165v941h213v-46h-162v-850h165v-45h-216z" />
    <glyph glyph-name="backslash" unicode="\" horiz-adv-x="470" 
d="M416 0l-416 741h54l416 -741h-54z" />
    <glyph glyph-name="bracketright" unicode="]" horiz-adv-x="446" 
d="M105 -165v45h162v850h-165v46h216v-941h-213z" />
    <glyph glyph-name="asciicircum" unicode="^" 
d="M113 617l151 147h61l152 -147h-55l-128 114l-128 -114h-53z" />
    <glyph glyph-name="underscore" unicode="_" horiz-adv-x="453" 
d="M-37 -109v43h527v-43h-527z" />
    <glyph glyph-name="grave" unicode="`" 
d="M313 607l-166 147h64l153 -147h-51z" />
    <glyph glyph-name="a" unicode="a" horiz-adv-x="613" 
d="M238 -11q-104 0 -146 42.5t-42 118.5q0 115 81 156.5t288 41.5h36q0 47 -5.5 75t-22.5 50t-48.5 31t-83.5 9q-95 0 -166 -49l-27 40q31 21 85 38.5t111 17.5q67 0 108 -12t63 -41t29 -67t7 -102v-220q0 -49 9.5 -60.5t50.5 -11.5v-45q-4 -2 -20 -2q-48 0 -66.5 22
t-18.5 70q-27 -53 -77.5 -77.5t-144.5 -24.5zM244 34q112 0 161.5 52.5t49.5 167.5v47h-34q-190 0 -255.5 -30t-65.5 -118q0 -60 32 -89.5t112 -29.5z" />
    <glyph glyph-name="b" unicode="b" horiz-adv-x="637" 
d="M348 -11q-94 0 -143.5 22.5t-76.5 76.5l-9 -90l-38 3v775h51v-316q23 53 74 76.5t144 23.5q128 0 180.5 -72t52.5 -213q0 -142 -53 -214t-182 -72zM342 36q105 0 147.5 59t42.5 178q0 121 -42 180t-148 59q-114 0 -162 -52.5t-48 -186.5t48 -185.5t162 -51.5z" />
    <glyph glyph-name="c" unicode="c" horiz-adv-x="556" 
d="M309 -11q-141 0 -198 72t-57 214t57.5 213.5t198.5 71.5q119 0 189 -74l-36 -35q-61 61 -153 61q-112 0 -158.5 -59t-46.5 -179t46 -179t159 -59q88 0 156 60l34 -33q-42 -37 -86 -55.5t-105 -18.5z" />
    <glyph glyph-name="d" unicode="d" horiz-adv-x="637" 
d="M288 -10q-129 0 -181.5 72t-52.5 214q0 141 53 212.5t182 71.5q93 0 143 -23t73 -75v314h51v-774l-40 -3l-6 93q-27 -55 -78 -78.5t-144 -23.5zM295 38q114 0 162 52t48 186t-47.5 185t-162.5 51q-106 0 -148 -58.5t-42 -177.5q0 -120 42 -179t148 -59z" />
    <glyph glyph-name="e" unicode="e" horiz-adv-x="585" 
d="M310 -11q-78 0 -130.5 21t-79 62.5t-36.5 89t-10 113.5q0 65 11 113t37.5 89t77.5 62t126 21q45 0 79.5 -9t57.5 -22.5t39 -37.5t24.5 -46t13 -56t5 -59.5t0.5 -64.5h-422q0 -54 8.5 -93t30.5 -72t64 -49.5t104 -16.5q63 0 101 14.5t78 43.5l28 -37q-89 -66 -207 -66z
M305 514q-108 0 -152 -52t-49 -150h372q-2 34 -3.5 53.5t-7.5 47t-17 42.5t-29 30.5t-46.5 22t-67.5 6.5z" />
    <glyph glyph-name="f" unicode="f" horiz-adv-x="366" 
d="M33 501v46h103v65q0 78 33 121t116 43h56v-46h-52q-57 0 -79.5 -31t-22.5 -87v-65h154v-46h-154v-501h-51v501h-103z" />
    <glyph glyph-name="g" unicode="g" horiz-adv-x="580" 
d="M281 200q-59 0 -101 12q-22 -24 -22 -49q0 -28 25 -37t98 -9q146 0 201.5 -27.5t55.5 -109.5t-58 -120.5t-203 -38.5q-130 0 -186.5 29t-56.5 108q0 115 115 137q-39 13 -39 63q0 40 28 71q-72 41 -72 149q0 93 52 137.5t163 44.5q35 0 59 -4l175 14v-43h-96
q78 -42 78 -149q0 -91 -52.5 -134.5t-163.5 -43.5zM281 245q87 0 126 32t39 101q0 135 -165 135q-87 0 -126 -32.5t-39 -102.5q0 -69 39 -101t126 -32zM278 -136q121 0 165 27.5t44 86.5q0 57 -44.5 75.5t-164.5 18.5q-115 0 -154 -28.5t-39 -79.5q0 -57 46 -78.5t147 -21.5
z" />
    <glyph glyph-name="h" unicode="h" horiz-adv-x="606" 
d="M81 0v776h51v-304q37 88 199 88q66 0 107 -15t60 -48t25 -68.5t6 -93.5v-335h-51v329q0 48 -4 75.5t-19 55t-48 39.5t-87 12q-57 0 -95.5 -14.5t-58 -43t-27 -61.5t-7.5 -80v-312h-51z" />
    <glyph glyph-name="i" unicode="i" horiz-adv-x="221" 
d="M85 0v547h51v-547h-51zM85 627v97h51v-97h-51z" />
    <glyph glyph-name="j" unicode="j" horiz-adv-x="221" 
d="M2 -166v43h4q49 1 64 19t15 71v580h51v-580q0 -76 -25 -104.5t-101 -28.5h-8zM85 627v97h51v-97h-51z" />
    <glyph glyph-name="k" unicode="k" horiz-adv-x="523" 
d="M81 0v776h50v-554l289 325h57l-204 -231l226 -316h-56l-202 280l-110 -122v-158h-50z" />
    <glyph glyph-name="l" unicode="l" horiz-adv-x="277" 
d="M188 -1q-61 0 -82 28t-21 92v657h51v-653q0 -46 11.5 -61.5t54.5 -15.5h25v-45q-12 -2 -39 -2z" />
    <glyph glyph-name="m" unicode="m" horiz-adv-x="983" 
d="M81 0v545l40 2l6 -77q37 90 199 90q89 0 127.5 -24.5t49.5 -71.5q42 96 210 96q53 0 89.5 -11.5t56.5 -28t31 -48.5t13.5 -61t2.5 -76v-335h-51v329q0 28 -0.5 44.5t-3.5 38.5t-9 34.5t-17 26.5t-27.5 21t-40.5 12t-55 5q-57 0 -95 -14.5t-56.5 -43t-25 -61.5t-6.5 -80
v-312h-51v329q0 28 -0.5 44.5t-3.5 38.5t-9 34.5t-17 26.5t-27.5 21t-40.5 12t-55 5q-57 0 -95 -14.5t-56.5 -43t-25 -61.5t-6.5 -80v-312h-51z" />
    <glyph glyph-name="n" unicode="n" horiz-adv-x="606" 
d="M81 0v545l40 2l6 -77q41 90 204 90q66 0 107 -15t60 -48t25 -68.5t6 -93.5v-335h-51v329q0 48 -4 75.5t-19 55t-48 39.5t-87 12q-57 0 -95.5 -14.5t-58 -43t-27 -61.5t-7.5 -80v-312h-51z" />
    <glyph glyph-name="o" unicode="o" horiz-adv-x="622" 
d="M310 -11q-135 0 -195.5 70t-60.5 216q0 145 60.5 215t195.5 70q136 0 197 -70t61 -215t-61 -215.5t-197 -70.5zM310 36q109 0 158 58.5t49 179.5t-49 179.5t-158 58.5t-157 -58.5t-48 -179.5t48 -179.5t157 -58.5z" />
    <glyph glyph-name="p" unicode="p" horiz-adv-x="637" 
d="M81 -165v710l40 2l6 -89q23 53 75 77.5t148 24.5q129 0 181 -71.5t52 -213.5q0 -141 -52.5 -212.5t-182.5 -71.5q-93 0 -143 23t-73 75v-254h-51zM342 38q105 0 147.5 58.5t42.5 177.5q0 120 -42 179t-148 59q-114 0 -162 -52t-48 -186t48 -185t162 -51z" />
    <glyph glyph-name="q" unicode="q" horiz-adv-x="637" 
d="M505 -165v253q-29 -53 -77.5 -75.5t-139.5 -22.5q-129 0 -181.5 72t-52.5 214q0 141 53 212.5t182 71.5q95 0 144.5 -22t75.5 -75l9 95l38 -3v-720h-51zM295 38q114 0 162 52t48 186t-47.5 185t-162.5 51q-106 0 -148 -58.5t-42 -177.5q0 -120 42 -179t148 -59z" />
    <glyph glyph-name="r" unicode="r" horiz-adv-x="345" 
d="M81 0v545l40 2l6 -94q16 43 67 72t127 29v-50q-97 0 -143 -54t-46 -146v-304h-51z" />
    <glyph glyph-name="s" unicode="s" horiz-adv-x="507" 
d="M254 -11q-126 0 -217 60l27 39q83 -53 192 -53q84 0 121.5 24t37.5 90q0 51 -32 71t-127 41q-55 12 -84.5 21.5t-58.5 26.5t-41 43.5t-12 66.5q0 141 195 141q112 0 191 -46l-24 -42q-72 41 -166 41q-80 0 -113 -24t-33 -71q0 -50 32 -70.5t119 -39.5q46 -10 72 -17
t55.5 -19t43.5 -27.5t23.5 -39t9.5 -55.5q0 -90 -50.5 -125.5t-160.5 -35.5z" />
    <glyph glyph-name="t" unicode="t" horiz-adv-x="392" 
d="M33 501v46h102l8 176l41 6v-182h158v-46h-158v-366q0 -47 16.5 -68t71.5 -21h70v-46q-4 -1 -76 -1q-81 0 -106.5 31.5t-25.5 100.5v370h-101z" />
    <glyph glyph-name="u" unicode="u" horiz-adv-x="601" 
d="M303 -11q-62 0 -105 12t-66.5 29t-36 49.5t-15.5 60.5t-3 74v333h51v-334q0 -28 0.5 -41t3.5 -35.5t9.5 -34t19 -26.5t31 -22t46.5 -12.5t65 -5.5q32 0 56.5 3t42.5 11t30.5 15.5t20 22t12.5 25t6.5 31t2 32t0.5 35.5v7v329h50v-329q0 -40 -2 -64t-8.5 -54t-21 -47.5
t-38 -33.5t-61.5 -23t-90 -7z" />
    <glyph glyph-name="v" unicode="v" horiz-adv-x="522" 
d="M234 -5l-218 552h53l193 -491l193 491h52l-219 -552h-54z" />
    <glyph glyph-name="w" unicode="w" horiz-adv-x="863" 
d="M221 -5l-203 552h52l176 -477l161 477h51l160 -476l176 476h51l-203 -552h-49l-162 477l-161 -477h-49z" />
    <glyph glyph-name="x" unicode="x" horiz-adv-x="523" 
d="M442 0l-182 249l-181 -249h-54l208 286l-191 261h56l165 -226l164 226h55l-192 -262l209 -285h-57z" />
    <glyph glyph-name="y" unicode="y" horiz-adv-x="514" 
d="M125 -166h-46v43h43q35 0 54 14.5t32 49.5l23 60l-215 546h53l189 -485l189 485h51l-241 -612q-21 -54 -51 -77.5t-81 -23.5z" />
    <glyph glyph-name="z" unicode="z" horiz-adv-x="490" 
d="M37 0v41l346 460h-328v46h389v-41l-346 -461h358v-45h-419z" />
    <glyph glyph-name="braceleft" unicode="{" horiz-adv-x="483" 
d="M318 -165q-88 0 -124 30t-36 96q0 33 28 136t28 130q0 33 -28 44.5t-99 11.5v45q70 0 98.5 10.5t28.5 46.5q0 27 -28 130t-28 135q0 66 36 96t124 30h63v-46h-56q-68 0 -92 -20.5t-24 -68.5q0 -27 28 -129t28 -133q0 -57 -53 -73q53 -17 53 -73q0 -31 -28 -133.5
t-28 -129.5q0 -49 24 -69.5t92 -20.5h56v-45h-63z" />
    <glyph glyph-name="bar" unicode="|" horiz-adv-x="307" 
d="M128 -165v941h51v-941h-51z" />
    <glyph glyph-name="braceright" unicode="}" horiz-adv-x="483" 
d="M102 -165v45h56q68 0 92 20.5t24 69.5q0 27 -28 129.5t-28 133.5q0 56 53 73q-53 16 -53 73q0 31 28 133t28 129q0 48 -24 68.5t-92 20.5h-56v46h63q88 0 124.5 -30t36.5 -96q0 -32 -28.5 -135.5t-28.5 -129.5q0 -33 28 -44.5t99 -11.5v-45q-69 0 -98 -11t-29 -46
q0 -27 28.5 -130t28.5 -136q0 -66 -36.5 -96t-124.5 -30h-63z" />
    <glyph glyph-name="asciitilde" unicode="~" 
d="M153 442l-35 26q21 27 50.5 45.5t57.5 18.5q36 0 76 -23.5t63 -23.5q31 0 76 53l33 -26q-58 -71 -108 -71q-31 0 -73.5 23.5t-65.5 23.5q-41 0 -74 -46z" />
    <glyph glyph-name="exclamdown" unicode="&#xa1;" horiz-adv-x="345" 
d="M144 0l7 547h44l6 -547h-57zM135 654v87h76v-87h-76z" />
    <glyph glyph-name="cent" unicode="&#xa2;" horiz-adv-x="549" 
d="M284 -94v86q-126 6 -178 77t-52 206t52 206t178 77v61h49v-61q101 -6 165 -72l-36 -34q-53 53 -132 59v-476q71 5 136 60l33 -32q-74 -66 -166 -71v-86h-49zM104 274q0 -114 41.5 -173.5t141.5 -65.5v476q-99 -6 -141 -65t-42 -172z" />
    <glyph glyph-name="sterling" unicode="&#xa3;" horiz-adv-x="593" 
d="M409 -9q-111 0 -209 53q-39 -44 -152 -44v45q88 0 112 26.5t24 98.5q0 56 -35 194h-110v44h99q-25 104 -25 160q0 186 203 186q102 0 185 -37l-21 -44q-70 33 -165 33q-82 0 -116.5 -37t-34.5 -106q0 -53 25 -155h243v-44h-233q33 -134 33 -193q0 -58 -10 -88
q90 -45 186 -45q57 0 74.5 23t17.5 82v22h47v-23q0 -82 -29 -116.5t-109 -34.5z" />
    <glyph glyph-name="currency" unicode="&#xa4;" horiz-adv-x="646" 
d="M43 428v45h112q13 139 72 209.5t182 70.5q98 0 167 -36l-23 -43q-61 32 -143 32q-100 0 -147.5 -59t-58.5 -174h279v-45h-282q-1 -17 -1 -53v-47h283v-46h-280q9 -125 56 -185.5t150 -60.5q89 0 145 34l26 -40q-68 -42 -173 -42q-126 0 -184 73t-69 221h-111v46h109
q-1 15 -1 46q0 36 1 54h-109z" />
    <glyph glyph-name="yen" unicode="&#xa5;" horiz-adv-x="608" 
d="M63 240v45h216v32l-261 424h54l232 -379l232 379h54l-261 -424v-32h217v-45h-217v-100h217v-46h-217v-94h-50v94h-216v46h216v100h-216z" />
    <glyph glyph-name="brokenbar" unicode="&#xa6;" horiz-adv-x="308" 
d="M128 -165v392h51v-392h-51zM128 384v392h51v-392h-51z" />
    <glyph glyph-name="section" unicode="&#xa7;" horiz-adv-x="526" 
d="M146 -10h-56v45h52q64 0 83 29.5t19 88.5v84q-96 2 -144 34.5t-48 102.5q0 66 43.5 99t130.5 38v76q0 39 4.5 64.5t18.5 50.5t45 37t80 12q53 0 57 -1v-45h-53q-64 0 -83 -29.5t-19 -87.5v-76q198 -5 198 -138q0 -128 -179 -137v-83q0 -39 -4.5 -64t-19 -50.5
t-45.5 -37.5t-80 -12zM262 276q84 0 125.5 23t41.5 75q0 51 -41.5 73.5t-125.5 22.5q-83 0 -124 -22.5t-41 -73.5q0 -52 41 -75t124 -23z" />
    <glyph glyph-name="dieresis" unicode="&#xa8;" 
d="M169 608v90h48v-90h-48zM374 608v90h48v-90h-48z" />
    <glyph glyph-name="copyright" unicode="&#xa9;" horiz-adv-x="839" 
d="M425 112q-119 0 -183 67t-64 196t65.5 195t182.5 66q103 0 171 -60l-28 -29q-57 51 -144 51q-98 0 -152.5 -57t-54.5 -166q0 -110 54 -167t154 -57q92 0 147 51l27 -27q-67 -63 -175 -63zM418 -12q-182 0 -276 103t-94 280t94 280t276 103t277 -103t95 -280
q0 -176 -95 -279.5t-277 -103.5zM418 18q168 0 254.5 94.5t86.5 258.5t-86 258.5t-255 94.5q-168 0 -253.5 -94.5t-85.5 -258.5t85.5 -258.5t253.5 -94.5z" />
    <glyph glyph-name="ordfeminine" unicode="&#xaa;" horiz-adv-x="580" 
d="M221 288q-154 0 -154 134q0 92 69.5 126.5t232.5 34.5h25q-1 74 -25 101t-100 27q-75 0 -131 -38l-25 35q69 45 159 45q54 0 87 -9.5t50.5 -33.5t23 -54.5t5.5 -82.5v-176q0 -40 7.5 -49.5t41.5 -9.5v-41q-1 0 -5.5 -0.5t-8.5 -0.5q-45 0 -60 15.5t-16 67.5
q-41 -91 -176 -91zM228 328q84 0 125 43t41 135v39h-23q-144 0 -202 -25.5t-58 -95.5q0 -96 117 -96zM109 162v41h332v-41h-332z" />
    <glyph glyph-name="guillemotleft" unicode="&#xab;" horiz-adv-x="650" 
d="M245 0l-151 273l151 274h47l-149 -274l149 -273h-47zM486 0l-151 273l151 274h47l-149 -274l149 -273h-47z" />
    <glyph glyph-name="logicalnot" unicode="&#xac;" horiz-adv-x="832" 
d="M126 120q-90 108 -90 251q0 142 90 250q3 -2 7 -6q-87 -106 -87 -244t88 -244zM228 211q-57 70 -57 160t56 160l3.5 -3.5t4.5 -3.5q-54 -67 -54 -153q0 -88 54 -153zM264 243q-45 56 -45 128t45 128q2 -1 4 -3.5t4 -3.5q-43 -53 -43 -121t43 -121q-2 -1 -4 -3.5t-4 -3.5z
M316 289q-28 36 -28 82q0 47 28 81q1 -1 2.5 -2t2.5 -2.5t2 -2.5q-25 -33 -25 -74t26 -75l-3.5 -3.5t-4.5 -3.5zM349 320q-16 22 -16 51t16 51q1 -1 4 -3.5t4 -3.5q-14 -20 -14 -44t14 -44q-3 -2 -8 -7zM378 346q-7 12 -7 25t7 25l6 -5q-5 -10 -5 -20t5 -20q-2 -2 -6 -5z
M416 60q-116 0 -201 77l7 7q84 -74 194 -74q111 0 193 74q1 -1 3.5 -4t3.5 -4q-86 -76 -200 -76zM416 324q-15 0 -27 9l6 6q11 -7 21 -7q13 0 21 7q2 -2 5 -6q-10 -9 -26 -9zM482 319q-3 4 -7 7q14 20 14 45t-14 44l7 7q17 -22 17 -51t-17 -52zM292 269q-35 45 -35 102
q0 58 36 102l7 -7q-33 -43 -33 -95t33 -95q-5 -5 -8 -7zM416 -17q-144 0 -252 97l7 8q105 -95 245 -95q139 0 244 94l2 -1l4 -4l1 -2q-107 -97 -251 -97zM416 121q-92 0 -161 61l7 8q65 -59 154 -59t153 59q1 -2 3.5 -4t3.5 -4q-67 -61 -160 -61zM416 170q-72 0 -129 49l7 7
q52 -46 122 -46t121 46q1 -2 3.5 -4.5l3.5 -3.5q-54 -48 -128 -48zM416 209q-57 0 -103 38l7 8q43 -36 96 -36t96 36q2 -2 6 -8q-45 -38 -102 -38zM416 265q-37 0 -66 24l7 8q25 -22 59 -22q33 0 58 22q1 -1 3.5 -4t3.5 -4q-29 -24 -65 -24zM358 445l-8 8q29 24 66 24
t66 -24l-8 -8q-25 22 -58 22t-58 -22zM570 552q-65 59 -154 59q-87 0 -153 -58l-7 7q69 61 160 61q92 0 161 -61q-2 -3 -7 -8zM454 346l-6 5q5 10 5 20t-5 20l6 5q7 -12 7 -25t-7 -25zM468 333q-5 5 -8 7q10 15 10 31t-10 31l8 7q12 -16 12 -38q0 -21 -12 -38zM498 306
q-3 2 -8 7q19 25 19 58t-19 58l7 7q22 -28 22 -65q0 -34 -21 -65zM540 269l-3.5 3.5t-4.5 3.5q33 43 33 95q0 53 -34 95l8 7q36 -44 36 -102q0 -57 -35 -102zM568 243q-5 5 -8 7q43 53 43 121t-43 121l8 7q45 -56 45 -128t-45 -128zM604 211q-3 2 -8 7q55 66 55 153
q0 89 -55 153l8 7q57 -68 57 -160t-57 -160zM649 171q-1 1 -3.5 3t-3.5 3q69 85 69 194q0 110 -70 193l8 7q72 -86 72 -200t-72 -200zM706 120q-3 3 -8 7q88 106 88 244t-88 244l8 7q90 -108 90 -251q0 -142 -90 -251zM183 170q-72 88 -72 201t71 200q1 -1 3.5 -3t4.5 -4
q-69 -83 -69 -193q0 -111 69 -194zM334 306q-21 29 -21 65t21 65q3 -2 8 -7q-19 -25 -19 -58q0 -32 19 -57zM364 333q-12 17 -12 38t12 38l7 -7q-9 -16 -9 -31t9 -31zM395 403l-5 6q10 9 26 9t26 -9l-5 -6q-10 7 -21 7q-13 0 -21 -7zM384 416l-7 7q17 14 39 14q21 0 38 -14
q-4 -4 -6 -7q-14 12 -32 12q-17 0 -32 -12zM371 430l-7 8q22 19 52 19t52 -19l-7 -8q-19 17 -45 17t-45 -17zM295 516l-7 8q54 48 128 48t128 -49l-2 -1l-2 -4l-2 -2q-52 46 -122 46t-121 -46zM416 240q-48 0 -83 30l7 8q35 -28 76 -28q42 0 75 28l7 -7q-36 -31 -82 -31z
M416 285q-29 0 -53 19l7 8q22 -17 46 -17q25 0 45 17l7 -8q-22 -19 -52 -19zM416 305q-21 0 -40 14l7 7q17 -12 33 -12q17 0 32 12l7 -7q-17 -14 -39 -14zM341 464l-7 7q36 31 82 31q47 0 82 -30l-7 -8q-33 28 -75 28t-75 -28zM320 487l-7 8q44 38 103 38q58 0 102 -39
l-6 -7q-41 36 -96 36q-53 0 -96 -36zM610 597q-81 75 -194 75q-110 0 -194 -74l-7 7q87 77 201 77t201 -77zM172 654l-7 8q107 97 251 97t252 -97l-7 -8q-105 95 -245 95q-139 0 -244 -95zM516 290l-7 7q25 33 25 74t-26 75l8 7q28 -36 28 -82q0 -47 -28 -81z" />
    <glyph glyph-name="registered" unicode="&#xae;" horiz-adv-x="839" 
d="M418 -12q-182 0 -276 103t-94 280t94 280t276 103t277 -103t95 -280q0 -176 -95 -279.5t-277 -103.5zM418 18q168 0 254.5 94.5t86.5 258.5t-86 258.5t-255 94.5q-168 0 -253.5 -94.5t-85.5 -258.5t85.5 -258.5t253.5 -94.5zM573 116l-131 221h-159v-221h-39v505h210
q85 0 123 -33t38 -108q0 -70 -32.5 -104t-100.5 -39l132 -221h-41zM283 372h172q62 0 92 24t30 83q0 58 -30 82.5t-93 24.5h-171v-214z" />
    <glyph glyph-name="macron" unicode="&#xaf;" 
d="M125 605v44h341v-44h-341z" />
    <glyph glyph-name="macron" unicode="&#x2c9;" 
d="M125 605v44h341v-44h-341z" />
    <glyph glyph-name="degree" unicode="&#xb0;" horiz-adv-x="569" 
d="M284 284q-108 0 -159 62t-51 172t51.5 172.5t158.5 62.5q108 0 159.5 -62.5t51.5 -172.5t-51.5 -172t-159.5 -62zM284 326q166 0 166 192q0 191 -166 191q-165 0 -165 -191q0 -192 165 -192z" />
    <glyph glyph-name="plusminus" unicode="&#xb1;" horiz-adv-x="937" 
d="M440 0v501h-253v-501h-51v501h-103v46h103v65q0 78 33 121t116 43h56v-46h-52q-57 0 -79.5 -31t-22.5 -87v-65h253v65q0 78 33 121t116 43h56v-46h-52q-57 0 -79.5 -31t-22.5 -87v-65h154v-46h-154v-501h-51zM847 -1q-61 0 -81.5 27.5t-20.5 92.5v657h50v-653
q0 -45 12 -61t54 -16h25v-45q-12 -2 -39 -2z" />
    <glyph glyph-name="twosuperior" unicode="&#xb2;" horiz-adv-x="419" 
d="M65 300v34l139 145q57 60 74 87t17 69q0 38 -23 56t-74 18q-64 0 -116 -24l-19 34q58 28 138 28q70 0 103.5 -26t33.5 -83q0 -49 -21.5 -84t-82.5 -98l-113 -119h222v-37h-278z" />
    <glyph glyph-name="threesuperior" unicode="&#xb3;" horiz-adv-x="442" 
d="M213 294q-87 0 -156 38l21 33q63 -34 133 -34q60 0 86 21t26 77q0 51 -25.5 73t-98.5 22h-56v36h54q64 0 88.5 17t24.5 61q0 39 -23.5 55t-76.5 16q-69 0 -121 -31l-22 33q61 37 147 37q74 0 107 -24.5t33 -79.5q0 -79 -65 -100q77 -18 77 -118q0 -74 -36 -103t-117 -29z
" />
    <glyph glyph-name="acute" unicode="&#xb4;" 
d="M226 607l154 147h64l-166 -147h-52z" />
    <glyph glyph-name="mu" unicode="&#xb5;" horiz-adv-x="605" 
d="M81 -165v712h51v-334q0 -28 0.5 -40.5t3.5 -36t9 -34t18.5 -26t31 -22.5t47 -12.5t65.5 -5.5q32 0 56.5 3t42.5 11t30.5 15.5t20 22t12.5 25t6.5 31t2 32t0.5 35.5v7v329h50v-329q0 -40 -1.5 -64t-8.5 -54t-21 -47.5t-37.5 -33.5t-61.5 -23t-89 -7q-141 0 -177 63v-217
h-51z" />
    <glyph glyph-name="mu" unicode="&#x3bc;" horiz-adv-x="605" 
d="M81 -165v712h51v-334q0 -28 0.5 -40.5t3.5 -36t9 -34t18.5 -26t31 -22.5t47 -12.5t65.5 -5.5q32 0 56.5 3t42.5 11t30.5 15.5t20 22t12.5 25t6.5 31t2 32t0.5 35.5v7v329h50v-329q0 -40 -1.5 -64t-8.5 -54t-21 -47.5t-37.5 -33.5t-61.5 -23t-89 -7q-141 0 -177 63v-217
h-51z" />
    <glyph glyph-name="paragraph" unicode="&#xb6;" horiz-adv-x="601" 
d="M267 0v309q-112 5 -161 57.5t-49 162.5q0 115 54.5 163.5t182.5 48.5h208v-741h-49v309h-137v-309h-49zM290 353h163v341h-160q-101 0 -143 -36.5t-42 -129.5q0 -95 43 -135t139 -40z" />
    <glyph glyph-name="periodcentered" unicode="&#xb7;" horiz-adv-x="223" 
d="M74 274v89h75v-89h-75z" />
    <glyph glyph-name="periodcentered" unicode="&#x2219;" horiz-adv-x="223" 
d="M74 274v89h75v-89h-75z" />
    <glyph glyph-name="cedilla" unicode="&#xb8;" 
d="M305 -217q-63 0 -110 27l18 32q41 -23 91 -23q49 0 66 16t17 41q0 29 -19 40.5t-76 8.5l-20 15l13 68h37l-9 -54q53 4 84 -12.5t31 -67.5q0 -91 -123 -91z" />
    <glyph glyph-name="onesuperior" unicode="&#xb9;" horiz-adv-x="314" 
d="M154 300v402h-91v39h134v-441h-43z" />
    <glyph glyph-name="ordmasculine" unicode="&#xba;" horiz-adv-x="586" 
d="M293 293q-207 0 -207 230t207 230q208 0 208 -230t-208 -230zM293 334q162 0 162 189q0 187 -162 187t-162 -187q0 -189 162 -189zM112 161v42h362v-42h-362z" />
    <glyph glyph-name="guillemotright" unicode="&#xbb;" horiz-adv-x="650" 
d="M118 0l149 274l-149 273h47l151 -273l-151 -274h-47zM359 0l148 274l-148 273h47l151 -273l-151 -274h-47z" />
    <glyph glyph-name="onequarter" unicode="&#xbc;" horiz-adv-x="820" 
d="M656 0v111h-215v36l197 296h49l-197 -294h166l7 130h36v-130h75v-38h-75v-111h-43zM153 299v402h-91v40h135v-442h-44zM167 0l412 741h48l-412 -741h-48z" />
    <glyph glyph-name="onehalf" unicode="&#xbd;" horiz-adv-x="893" 
d="M533 0v36l139 144q58 61 74.5 87t16.5 68q0 38 -23 56t-74 18q-67 0 -115 -25l-20 36q59 28 138 28q71 0 104 -26t33 -84q0 -50 -21 -84t-82 -97l-113 -119h214v-38h-271zM153 299v402h-91v40h135v-442h-44zM167 0l412 741h48l-412 -741h-48z" />
    <glyph glyph-name="threequarters" unicode="&#xbe;" horiz-adv-x="902" 
d="M196 298q-84 0 -157 39l23 34q63 -34 131 -34q61 0 86.5 20.5t25.5 76.5q0 50 -25 72t-98 22h-56v38h54q64 0 88.5 16.5t24.5 60.5q0 38 -23.5 54.5t-76.5 16.5q-70 0 -121 -32l-23 34q60 37 147 37q74 0 107 -24t33 -80q0 -78 -65 -100q78 -18 78 -118q0 -74 -36 -103.5
t-117 -29.5zM738 0v111h-214v36l196 296h49l-197 -294h166l8 130h35v-130h75v-38h-75v-111h-43zM249 0l413 741h48l-413 -741h-48z" />
    <glyph glyph-name="questiondown" unicode="&#xbf;" horiz-adv-x="652" 
d="M319 -4q-70 0 -116 11t-71 34.5t-34.5 52.5t-9.5 72q0 67 32 105.5t108 83.5q67 41 83.5 77t9.5 127h50q9 -99 -11 -145t-95 -90q-75 -47 -100 -75t-25 -80q0 -31 6.5 -51.5t25 -38t55.5 -26t94 -8.5q123 0 219 52l23 -44q-103 -57 -244 -57zM309 667v83h75v-83h-75z" />
    <glyph glyph-name="Agrave" unicode="&#xc0;" horiz-adv-x="707" 
d="M30 0l297 746h51l297 -746h-53l-75 188h-391l-74 -188h-52zM174 236h355l-177 445zM370 787l-166 147h64l153 -147h-51z" />
    <glyph glyph-name="Aacute" unicode="&#xc1;" horiz-adv-x="707" 
d="M30 0l297 746h51l297 -746h-53l-75 188h-391l-74 -188h-52zM174 236h355l-177 445zM283 787l154 147h64l-166 -147h-52z" />
    <glyph glyph-name="Acircumflex" unicode="&#xc2;" horiz-adv-x="707" 
d="M30 0l297 746h51l297 -746h-53l-75 188h-391l-74 -188h-52zM174 236h355l-177 445zM170 787l151 147h61l152 -147h-55l-128 114l-128 -114h-53z" />
    <glyph glyph-name="Atilde" unicode="&#xc3;" horiz-adv-x="707" 
d="M30 0l297 746h51l297 -746h-53l-75 188h-391l-74 -188h-52zM174 236h355l-177 445zM210 791l-35 26q21 27 50.5 45.5t57.5 18.5q35 0 75 -23.5t64 -23.5q31 0 76 53l33 -26q-58 -71 -108 -71q-31 0 -73.5 23.5t-65.5 23.5q-41 0 -74 -46z" />
    <glyph glyph-name="Adieresis" unicode="&#xc4;" horiz-adv-x="707" 
d="M30 0l297 746h51l297 -746h-53l-75 188h-391l-74 -188h-52zM174 236h355l-177 445zM226 788v90h48v-90h-48zM431 788v90h48v-90h-48z" />
    <glyph glyph-name="Aring" unicode="&#xc5;" horiz-adv-x="707" 
d="M31 0l282 709q-73 20 -73 110q0 51 28.5 83t84.5 32q54 0 83 -32.5t29 -82.5q0 -87 -71 -110l282 -709h-53l-75 188h-392l-74 -188h-51zM174 235h356l-178 446zM353 738q39 0 58.5 22t19.5 59q0 36 -19.5 58.5t-58.5 22.5t-59 -22.5t-20 -58.5q0 -37 19.5 -59t59.5 -22z
" />
    <glyph glyph-name="AE" unicode="&#xc6;" horiz-adv-x="1047" 
d="M25 0l467 741h492v-49h-418v-280h408v-48h-408v-316h422v-48h-472v182h-322l-115 -182h-54zM221 228h295v464z" />
    <glyph glyph-name="Ccedilla" unicode="&#xc7;" horiz-adv-x="710" 
d="M364 -217q-63 0 -110 27l18 32q41 -23 91 -23q49 0 66 16t17 41q0 29 -19 40.5t-76 8.5l-20 15l10 53q-294 33 -294 378q0 190 93 286t269 96q155 0 250 -88l-36 -37q-85 76 -214 76q-152 0 -230.5 -83.5t-78.5 -249.5q0 -333 309 -333q135 0 219 78l36 -36
q-95 -91 -257 -91q-20 0 -29 1l-6 -36q53 4 84 -12.5t31 -67.5q0 -91 -123 -91z" />
    <glyph glyph-name="Egrave" unicode="&#xc8;" horiz-adv-x="624" 
d="M91 0v741h470v-49h-417v-280h407v-49h-407v-315h421v-48h-474zM329 787l-166 147h64l153 -147h-51z" />
    <glyph glyph-name="Eacute" unicode="&#xc9;" horiz-adv-x="624" 
d="M242 787l154 147h64l-166 -147h-52zM91 0v741h470v-49h-417v-280h407v-49h-407v-315h421v-48h-474z" />
    <glyph glyph-name="Ecircumflex" unicode="&#xca;" horiz-adv-x="624" 
d="M129 787l151 147h61l152 -147h-55l-128 114l-128 -114h-53zM91 0v741h470v-49h-417v-280h407v-49h-407v-315h421v-48h-474z" />
    <glyph glyph-name="Edieresis" unicode="&#xcb;" horiz-adv-x="624" 
d="M185 788v90h48v-90h-48zM390 788v90h48v-90h-48zM91 0v741h470v-49h-417v-280h407v-49h-407v-315h421v-48h-474z" />
    <glyph glyph-name="Igrave" unicode="&#xcc;" horiz-adv-x="247" 
d="M98 787l-143 147h65l129 -147h-51zM98 0v741h51v-741h-51z" />
    <glyph glyph-name="Iacute" unicode="&#xcd;" horiz-adv-x="247" 
d="M98 787l129 147h64l-142 -147h-51zM98 0v741h51v-741h-51z" />
    <glyph glyph-name="Icircumflex" unicode="&#xce;" horiz-adv-x="247" 
d="M-31 787l125 147h58l124 -147h-53l-101 115l-101 -115h-52zM98 0v741h51v-741h-51z" />
    <glyph glyph-name="Idieresis" unicode="&#xcf;" horiz-adv-x="247" 
d="M98 0v741h51v-741h-51zM-2 788v90h48v-90h-48zM203 788v90h48v-90h-48z" />
    <glyph glyph-name="Eth" unicode="&#xd0;" horiz-adv-x="742" 
d="M1 365v45h90v331h235q207 0 288.5 -80t81.5 -290q0 -205 -89 -288t-297 -83h-219v365h-90zM144 48h168q182 0 256.5 72.5t74.5 250.5q0 183 -67.5 252t-249.5 69h-182v-282h177v-45h-177v-317z" />
    <glyph glyph-name="Ntilde" unicode="&#xd1;" horiz-adv-x="766" 
d="M91 0v741h59l475 -657v657h50v-741h-48l-486 671v-671h-50zM240 791l-35 26q21 27 50.5 45.5t57.5 18.5q36 0 76 -23.5t63 -23.5q31 0 76 53l33 -26q-58 -71 -108 -71q-31 0 -73.5 23.5t-65.5 23.5q-41 0 -74 -46z" />
    <glyph glyph-name="Ograve" unicode="&#xd2;" horiz-adv-x="828" 
d="M413 -12q-366 0 -366 383q0 382 366 382q368 0 368 -382q0 -383 -368 -383zM413 37q316 0 316 334q0 333 -316 333q-313 0 -313 -333q0 -334 313 -334zM431 787l-166 147h64l153 -147h-51z" />
    <glyph glyph-name="Oacute" unicode="&#xd3;" horiz-adv-x="828" 
d="M344 787l154 147h64l-166 -147h-52zM413 -12q-366 0 -366 383q0 382 366 382q368 0 368 -382q0 -383 -368 -383zM413 37q316 0 316 334q0 333 -316 333q-313 0 -313 -333q0 -334 313 -334z" />
    <glyph glyph-name="Ocircumflex" unicode="&#xd4;" horiz-adv-x="828" 
d="M231 787l151 147h61l152 -147h-55l-128 114l-128 -114h-53zM413 -12q-366 0 -366 383q0 382 366 382q368 0 368 -382q0 -383 -368 -383zM413 37q316 0 316 334q0 333 -316 333q-313 0 -313 -333q0 -334 313 -334z" />
    <glyph glyph-name="Otilde" unicode="&#xd5;" horiz-adv-x="828" 
d="M413 -12q-366 0 -366 383q0 382 366 382q368 0 368 -382q0 -383 -368 -383zM413 37q316 0 316 334q0 333 -316 333q-313 0 -313 -333q0 -334 313 -334zM271 791l-35 26q21 27 50.5 45.5t57.5 18.5q36 0 76 -23.5t63 -23.5q31 0 76 53l33 -26q-58 -71 -108 -71
q-31 0 -73.5 23.5t-65.5 23.5q-41 0 -74 -46z" />
    <glyph glyph-name="Odieresis" unicode="&#xd6;" horiz-adv-x="828" 
d="M287 788v90h48v-90h-48zM492 788v90h48v-90h-48zM413 -12q-366 0 -366 383q0 382 366 382q368 0 368 -382q0 -383 -368 -383zM413 37q316 0 316 334q0 333 -316 333q-313 0 -313 -333q0 -334 313 -334z" />
    <glyph glyph-name="multiply" unicode="&#xd7;" horiz-adv-x="688" 
d="M181 159l-31 32l162 162l-162 162l32 33l162 -162l161 162l32 -33l-161 -162l161 -162l-32 -32l-161 162z" />
    <glyph glyph-name="Oslash" unicode="&#xd8;" horiz-adv-x="828" 
d="M413 -12q-105 0 -177 28l-31 -57h-53l43 77q-148 86 -148 335q0 195 90 288.5t276 93.5q94 0 163 -24l31 54h52l-40 -71q162 -83 162 -341q0 -195 -90.5 -289t-277.5 -94zM413 36q164 0 240.5 83.5t76.5 251.5q0 224 -138 297l-333 -607q62 -25 154 -25zM99 371
q0 -216 123 -291l332 604q-60 21 -141 21q-163 0 -238.5 -83t-75.5 -251z" />
    <glyph glyph-name="Ugrave" unicode="&#xd9;" horiz-adv-x="767" 
d="M382 -12q-90 0 -150.5 21t-91 61.5t-42.5 85.5t-12 106v479h53v-475q0 -110 52 -169.5t191 -59.5q140 0 194 59.5t54 169.5v475h51v-479q0 -61 -12.5 -106.5t-44 -85.5t-92.5 -61t-150 -21zM400 787l-166 147h64l153 -147h-51z" />
    <glyph glyph-name="Uacute" unicode="&#xda;" horiz-adv-x="767" 
d="M313 787l154 147h64l-166 -147h-52zM382 -12q-90 0 -150.5 21t-91 61.5t-42.5 85.5t-12 106v479h53v-475q0 -110 52 -169.5t191 -59.5q140 0 194 59.5t54 169.5v475h51v-479q0 -61 -12.5 -106.5t-44 -85.5t-92.5 -61t-150 -21z" />
    <glyph glyph-name="Ucircumflex" unicode="&#xdb;" horiz-adv-x="767" 
d="M200 787l151 147h61l152 -147h-55l-128 114l-128 -114h-53zM382 -12q-90 0 -150.5 21t-91 61.5t-42.5 85.5t-12 106v479h53v-475q0 -110 52 -169.5t191 -59.5q140 0 194 59.5t54 169.5v475h51v-479q0 -61 -12.5 -106.5t-44 -85.5t-92.5 -61t-150 -21z" />
    <glyph glyph-name="Udieresis" unicode="&#xdc;" horiz-adv-x="767" 
d="M256 788v90h48v-90h-48zM461 788v90h48v-90h-48zM382 -12q-90 0 -150.5 21t-91 61.5t-42.5 85.5t-12 106v479h53v-475q0 -110 52 -169.5t191 -59.5q140 0 194 59.5t54 169.5v475h51v-479q0 -61 -12.5 -106.5t-44 -85.5t-92.5 -61t-150 -21z" />
    <glyph glyph-name="Yacute" unicode="&#xdd;" horiz-adv-x="682" 
d="M315 0v297l-298 444h57l268 -397l268 397h55l-298 -442v-299h-52zM271 787l154 147h64l-166 -147h-52z" />
    <glyph glyph-name="Thorn" unicode="&#xde;" horiz-adv-x="690" 
d="M91 0v741h52v-129h263q128 0 182.5 -49t54.5 -164q0 -116 -55 -169t-180 -53h-265v-177h-52zM143 225h266q96 0 139 40t43 133q0 94 -42 130t-144 36h-262v-339z" />
    <glyph glyph-name="germandbls" unicode="&#xdf;" horiz-adv-x="634" 
d="M81 0v551q0 104 56.5 165.5t180.5 61.5q114 0 167.5 -46t53.5 -143q0 -139 -114 -178q171 -29 171 -199q0 -51 -11 -86.5t-39 -65.5t-83.5 -45t-138.5 -15h-66v47h65q57 0 97.5 9t64.5 23t37.5 36.5t18 45t4.5 53.5q0 86 -51 126.5t-176 40.5v44q81 0 126 39t45 117
q0 76 -41 111.5t-131 35.5q-94 0 -140 -47.5t-46 -130.5v-550h-50z" />
    <glyph glyph-name="agrave" unicode="&#xe0;" horiz-adv-x="613" 
d="M238 -11q-104 0 -146 42.5t-42 118.5q0 115 81 156.5t288 41.5h36q0 47 -5.5 75t-22.5 50t-48.5 31t-83.5 9q-95 0 -166 -49l-27 40q31 21 85 38.5t111 17.5q67 0 108 -12t63 -41t29 -67t7 -102v-220q0 -49 9.5 -60.5t50.5 -11.5v-45q-4 -2 -20 -2q-48 0 -66.5 22
t-18.5 70q-27 -53 -77.5 -77.5t-144.5 -24.5zM244 34q112 0 161.5 52.5t49.5 167.5v47h-34q-190 0 -255.5 -30t-65.5 -118q0 -60 32 -89.5t112 -29.5zM326 607l-166 147h64l153 -147h-51z" />
    <glyph glyph-name="aacute" unicode="&#xe1;" horiz-adv-x="613" 
d="M238 -11q-104 0 -146 42.5t-42 118.5q0 115 81 156.5t288 41.5h36q0 47 -5.5 75t-22.5 50t-48.5 31t-83.5 9q-95 0 -166 -49l-27 40q31 21 85 38.5t111 17.5q67 0 108 -12t63 -41t29 -67t7 -102v-220q0 -49 9.5 -60.5t50.5 -11.5v-45q-4 -2 -20 -2q-48 0 -66.5 22
t-18.5 70q-27 -53 -77.5 -77.5t-144.5 -24.5zM244 34q112 0 161.5 52.5t49.5 167.5v47h-34q-190 0 -255.5 -30t-65.5 -118q0 -60 32 -89.5t112 -29.5zM239 607l154 147h64l-166 -147h-52z" />
    <glyph glyph-name="acircumflex" unicode="&#xe2;" horiz-adv-x="613" 
d="M238 -11q-104 0 -146 42.5t-42 118.5q0 115 81 156.5t288 41.5h36q0 47 -5.5 75t-22.5 50t-48.5 31t-83.5 9q-95 0 -166 -49l-27 40q31 21 85 38.5t111 17.5q67 0 108 -12t63 -41t29 -67t7 -102v-220q0 -49 9.5 -60.5t50.5 -11.5v-45q-4 -2 -20 -2q-48 0 -66.5 22
t-18.5 70q-27 -53 -77.5 -77.5t-144.5 -24.5zM244 34q112 0 161.5 52.5t49.5 167.5v47h-34q-190 0 -255.5 -30t-65.5 -118q0 -60 32 -89.5t112 -29.5zM126 607l151 147h61l152 -147h-55l-128 114l-128 -114h-53z" />
    <glyph glyph-name="atilde" unicode="&#xe3;" horiz-adv-x="613" 
d="M238 -11q-104 0 -146 42.5t-42 118.5q0 115 81 156.5t288 41.5h36q0 47 -5.5 75t-22.5 50t-48.5 31t-83.5 9q-95 0 -166 -49l-27 40q31 21 85 38.5t111 17.5q67 0 108 -12t63 -41t29 -67t7 -102v-220q0 -49 9.5 -60.5t50.5 -11.5v-45q-4 -2 -20 -2q-48 0 -66.5 22
t-18.5 70q-27 -53 -77.5 -77.5t-144.5 -24.5zM244 34q112 0 161.5 52.5t49.5 167.5v47h-34q-190 0 -255.5 -30t-65.5 -118q0 -60 32 -89.5t112 -29.5zM166 611l-35 26q21 27 50.5 45.5t57.5 18.5q36 0 76 -23.5t63 -23.5q31 0 76 53l33 -26q-58 -71 -108 -71
q-31 0 -73.5 23.5t-65.5 23.5q-41 0 -74 -46z" />
    <glyph glyph-name="adieresis" unicode="&#xe4;" horiz-adv-x="613" 
d="M238 -11q-104 0 -146 42.5t-42 118.5q0 115 81 156.5t288 41.5h36q0 47 -5.5 75t-22.5 50t-48.5 31t-83.5 9q-95 0 -166 -49l-27 40q31 21 85 38.5t111 17.5q67 0 108 -12t63 -41t29 -67t7 -102v-220q0 -49 9.5 -60.5t50.5 -11.5v-45q-4 -2 -20 -2q-48 0 -66.5 22
t-18.5 70q-27 -53 -77.5 -77.5t-144.5 -24.5zM244 34q112 0 161.5 52.5t49.5 167.5v47h-34q-190 0 -255.5 -30t-65.5 -118q0 -60 32 -89.5t112 -29.5zM182 608v90h48v-90h-48zM387 608v90h48v-90h-48z" />
    <glyph glyph-name="aring" unicode="&#xe5;" horiz-adv-x="613" 
d="M238 -11q-104 0 -146 42.5t-42 118.5q0 115 81 156.5t288 41.5h36q0 47 -5.5 75t-22.5 50t-48.5 31t-83.5 9q-95 0 -166 -49l-27 40q31 21 85 38.5t111 17.5q67 0 108 -12t63 -41t29 -67t7 -102v-220q0 -49 9.5 -60.5t50.5 -11.5v-45q-4 -2 -20 -2q-48 0 -66.5 22
t-18.5 70q-27 -53 -77.5 -77.5t-144.5 -24.5zM244 34q112 0 161.5 52.5t49.5 167.5v47h-34q-190 0 -255.5 -30t-65.5 -118q0 -60 32 -89.5t112 -29.5zM308 598q-56 0 -84.5 31.5t-28.5 83.5t28.5 84t84.5 32q54 0 83 -32.5t29 -83.5q0 -52 -29 -83.5t-83 -31.5zM308 632
q39 0 58.5 22.5t19.5 58.5t-19.5 58.5t-58.5 22.5t-58.5 -22t-19.5 -59t19.5 -59t58.5 -22z" />
    <glyph glyph-name="ae" unicode="&#xe6;" horiz-adv-x="984" 
d="M709 -11q-185 0 -231 131q-29 -73 -85 -102t-154 -29q-92 0 -140.5 37.5t-48.5 123.5q0 114 82.5 156t286.5 42h36q0 47 -5.5 75t-22.5 50t-48.5 31t-83.5 9q-94 0 -167 -48l-26 39q31 21 85 38.5t111 17.5q91 0 134.5 -25t56.5 -81q54 106 216 106q45 0 80 -9t58 -22.5
t39 -38t24.5 -45.5t12.5 -56t4.5 -59.5t0.5 -64.5h-422q0 -54 8.5 -93t30.5 -72t64 -49.5t104 -16.5q63 0 101 14.5t78 43.5l28 -37q-91 -66 -207 -66zM244 34q112 0 161.5 52.5t49.5 167.5v47h-34q-183 0 -252 -30.5t-69 -117.5q0 -60 32 -89.5t112 -29.5zM704 514
q-108 0 -152 -52t-49 -150h372q-2 34 -3.5 53.5t-7.5 47t-17 42.5t-29 30.5t-46.5 22t-67.5 6.5z" />
    <glyph glyph-name="ccedilla" unicode="&#xe7;" horiz-adv-x="556" 
d="M288 -217q-63 0 -110 27l18 32q41 -23 91 -23q49 0 66 16t17 41q0 29 -19 40.5t-76 8.5l-20 15l10 51q-116 11 -163.5 82t-47.5 202q0 142 57.5 213.5t198.5 71.5q119 0 189 -74l-36 -35q-61 61 -153 61q-112 0 -158.5 -59t-46.5 -179t46 -179t159 -59q88 0 156 60
l34 -33q-42 -37 -86 -55.5t-105 -18.5h-7l-6 -35q53 4 84 -12.5t31 -67.5q0 -91 -123 -91z" />
    <glyph glyph-name="egrave" unicode="&#xe8;" horiz-adv-x="585" 
d="M310 -11q-78 0 -130.5 21t-79 62.5t-36.5 89t-10 113.5q0 65 11 113t37.5 89t77.5 62t126 21q45 0 79.5 -9t57.5 -22.5t39 -37.5t24.5 -46t13 -56t5 -59.5t0.5 -64.5h-422q0 -54 8.5 -93t30.5 -72t64 -49.5t104 -16.5q63 0 101 14.5t78 43.5l28 -37q-89 -66 -207 -66z
M305 514q-108 0 -152 -52t-49 -150h372q-2 34 -3.5 53.5t-7.5 47t-17 42.5t-29 30.5t-46.5 22t-67.5 6.5zM310 607l-166 147h64l153 -147h-51z" />
    <glyph glyph-name="eacute" unicode="&#xe9;" horiz-adv-x="585" 
d="M223 607l154 147h64l-166 -147h-52zM310 -11q-78 0 -130.5 21t-79 62.5t-36.5 89t-10 113.5q0 65 11 113t37.5 89t77.5 62t126 21q45 0 79.5 -9t57.5 -22.5t39 -37.5t24.5 -46t13 -56t5 -59.5t0.5 -64.5h-422q0 -54 8.5 -93t30.5 -72t64 -49.5t104 -16.5q63 0 101 14.5
t78 43.5l28 -37q-89 -66 -207 -66zM305 514q-108 0 -152 -52t-49 -150h372q-2 34 -3.5 53.5t-7.5 47t-17 42.5t-29 30.5t-46.5 22t-67.5 6.5z" />
    <glyph glyph-name="ecircumflex" unicode="&#xea;" horiz-adv-x="585" 
d="M110 607l151 147h61l152 -147h-55l-128 114l-128 -114h-53zM310 -11q-78 0 -130.5 21t-79 62.5t-36.5 89t-10 113.5q0 65 11 113t37.5 89t77.5 62t126 21q45 0 79.5 -9t57.5 -22.5t39 -37.5t24.5 -46t13 -56t5 -59.5t0.5 -64.5h-422q0 -54 8.5 -93t30.5 -72t64 -49.5
t104 -16.5q63 0 101 14.5t78 43.5l28 -37q-89 -66 -207 -66zM305 514q-108 0 -152 -52t-49 -150h372q-2 34 -3.5 53.5t-7.5 47t-17 42.5t-29 30.5t-46.5 22t-67.5 6.5z" />
    <glyph glyph-name="edieresis" unicode="&#xeb;" horiz-adv-x="585" 
d="M166 608v90h48v-90h-48zM371 608v90h48v-90h-48zM310 -11q-78 0 -130.5 21t-79 62.5t-36.5 89t-10 113.5q0 65 11 113t37.5 89t77.5 62t126 21q45 0 79.5 -9t57.5 -22.5t39 -37.5t24.5 -46t13 -56t5 -59.5t0.5 -64.5h-422q0 -54 8.5 -93t30.5 -72t64 -49.5t104 -16.5
q63 0 101 14.5t78 43.5l28 -37q-89 -66 -207 -66zM305 514q-108 0 -152 -52t-49 -150h372q-2 34 -3.5 53.5t-7.5 47t-17 42.5t-29 30.5t-46.5 22t-67.5 6.5z" />
    <glyph glyph-name="igrave" unicode="&#xec;" horiz-adv-x="221" 
d="M86 607l-133 146h63l120 -146h-50zM85 0v547h51v-547h-51z" />
    <glyph glyph-name="iacute" unicode="&#xed;" horiz-adv-x="221" 
d="M87 607l120 146h62l-132 -146h-50zM85 0v547h51v-547h-51z" />
    <glyph glyph-name="icircumflex" unicode="&#xee;" horiz-adv-x="221" 
d="M-33 607l115 146h56l115 -146h-53l-90 115l-92 -115h-51zM85 0v547h51v-547h-51z" />
    <glyph glyph-name="idieresis" unicode="&#xef;" horiz-adv-x="221" 
d="M-4 624v90h45v-90h-45zM180 624v90h45v-90h-45zM85 0v547h51v-547h-51z" />
    <glyph glyph-name="eth" unicode="&#xf0;" horiz-adv-x="622" 
d="M308 607v40l90 28q-37 38 -93 80l41 26q66 -47 104 -90l136 42v-40l-110 -34q92 -128 92 -380q0 -149 -61.5 -219.5t-196.5 -70.5t-195.5 70t-60.5 212q0 140 58 210.5t189 70.5q81 0 127 -21.5t75 -65.5q-21 103 -78 178zM310 36q110 0 158.5 57.5t48.5 177.5t-48.5 178
t-158.5 58q-109 0 -157 -58t-48 -178t48 -177.5t157 -57.5z" />
    <glyph glyph-name="ntilde" unicode="&#xf1;" horiz-adv-x="606" 
d="M81 0v545l40 2l6 -77q41 90 204 90q66 0 107 -15t60 -48t25 -68.5t6 -93.5v-335h-51v329q0 48 -4 75.5t-19 55t-48 39.5t-87 12q-57 0 -95.5 -14.5t-58 -43t-27 -61.5t-7.5 -80v-312h-51zM160 611l-35 26q21 27 50.5 45.5t57.5 18.5q36 0 76 -23.5t63 -23.5q31 0 76 53
l33 -26q-58 -71 -108 -71q-31 0 -73.5 23.5t-65.5 23.5q-41 0 -74 -46z" />
    <glyph glyph-name="ograve" unicode="&#xf2;" horiz-adv-x="622" 
d="M310 -11q-135 0 -195.5 70t-60.5 216q0 145 60.5 215t195.5 70q136 0 197 -70t61 -215t-61 -215.5t-197 -70.5zM310 36q109 0 158 58.5t49 179.5t-49 179.5t-158 58.5t-157 -58.5t-48 -179.5t48 -179.5t157 -58.5zM328 607l-166 147h64l153 -147h-51z" />
    <glyph glyph-name="oacute" unicode="&#xf3;" horiz-adv-x="622" 
d="M241 607l154 147h64l-166 -147h-52zM310 -11q-135 0 -195.5 70t-60.5 216q0 145 60.5 215t195.5 70q136 0 197 -70t61 -215t-61 -215.5t-197 -70.5zM310 36q109 0 158 58.5t49 179.5t-49 179.5t-158 58.5t-157 -58.5t-48 -179.5t48 -179.5t157 -58.5z" />
    <glyph glyph-name="ocircumflex" unicode="&#xf4;" horiz-adv-x="622" 
d="M128 607l151 147h61l152 -147h-55l-128 114l-128 -114h-53zM310 -11q-135 0 -195.5 70t-60.5 216q0 145 60.5 215t195.5 70q136 0 197 -70t61 -215t-61 -215.5t-197 -70.5zM310 36q109 0 158 58.5t49 179.5t-49 179.5t-158 58.5t-157 -58.5t-48 -179.5t48 -179.5
t157 -58.5z" />
    <glyph glyph-name="otilde" unicode="&#xf5;" horiz-adv-x="622" 
d="M310 -11q-135 0 -195.5 70t-60.5 216q0 145 60.5 215t195.5 70q136 0 197 -70t61 -215t-61 -215.5t-197 -70.5zM310 36q109 0 158 58.5t49 179.5t-49 179.5t-158 58.5t-157 -58.5t-48 -179.5t48 -179.5t157 -58.5zM168 611l-35 26q21 27 50.5 45.5t57.5 18.5
q36 0 76 -23.5t63 -23.5q31 0 76 53l33 -26q-58 -71 -108 -71q-31 0 -73.5 23.5t-65.5 23.5q-41 0 -74 -46z" />
    <glyph glyph-name="odieresis" unicode="&#xf6;" horiz-adv-x="622" 
d="M184 608v90h48v-90h-48zM389 608v90h48v-90h-48zM310 -11q-135 0 -195.5 70t-60.5 216q0 145 60.5 215t195.5 70q136 0 197 -70t61 -215t-61 -215.5t-197 -70.5zM310 36q109 0 158 58.5t49 179.5t-49 179.5t-158 58.5t-157 -58.5t-48 -179.5t48 -179.5t157 -58.5z" />
    <glyph glyph-name="divide" unicode="&#xf7;" horiz-adv-x="688" 
d="M309 118v79h71v-79h-71zM110 329v48h467v-48h-467zM309 510v78h71v-78h-71z" />
    <glyph glyph-name="oslash" unicode="&#xf8;" horiz-adv-x="622" 
d="M310 -11q-73 0 -125 20l-29 -51h-49l40 71q-93 63 -93 246q0 145 60 215t196 70q74 0 127 -21l29 51h49l-41 -72q94 -65 94 -243q0 -145 -61 -215.5t-197 -70.5zM104 274q0 -146 70 -202l239 422q-41 19 -103 19q-109 0 -157.5 -59t-48.5 -180zM310 35q110 0 159 59
t49 180q0 145 -72 201l-238 -422q40 -18 102 -18z" />
    <glyph glyph-name="ugrave" unicode="&#xf9;" horiz-adv-x="601" 
d="M303 -11q-62 0 -105 12t-66.5 29t-36 49.5t-15.5 60.5t-3 74v333h51v-334q0 -28 0.5 -41t3.5 -35.5t9.5 -34t19 -26.5t31 -22t46.5 -12.5t65 -5.5q32 0 56.5 3t42.5 11t30.5 15.5t20 22t12.5 25t6.5 31t2 32t0.5 35.5v7v329h50v-329q0 -40 -2 -64t-8.5 -54t-21 -47.5
t-38 -33.5t-61.5 -23t-90 -7zM318 607l-166 147h64l153 -147h-51z" />
    <glyph glyph-name="uacute" unicode="&#xfa;" horiz-adv-x="601" 
d="M231 607l154 147h64l-166 -147h-52zM303 -11q-62 0 -105 12t-66.5 29t-36 49.5t-15.5 60.5t-3 74v333h51v-334q0 -28 0.5 -41t3.5 -35.5t9.5 -34t19 -26.5t31 -22t46.5 -12.5t65 -5.5q32 0 56.5 3t42.5 11t30.5 15.5t20 22t12.5 25t6.5 31t2 32t0.5 35.5v7v329h50v-329
q0 -40 -2 -64t-8.5 -54t-21 -47.5t-38 -33.5t-61.5 -23t-90 -7z" />
    <glyph glyph-name="ucircumflex" unicode="&#xfb;" horiz-adv-x="601" 
d="M118 607l151 147h61l152 -147h-55l-128 114l-128 -114h-53zM303 -11q-62 0 -105 12t-66.5 29t-36 49.5t-15.5 60.5t-3 74v333h51v-334q0 -28 0.5 -41t3.5 -35.5t9.5 -34t19 -26.5t31 -22t46.5 -12.5t65 -5.5q32 0 56.5 3t42.5 11t30.5 15.5t20 22t12.5 25t6.5 31t2 32
t0.5 35.5v7v329h50v-329q0 -40 -2 -64t-8.5 -54t-21 -47.5t-38 -33.5t-61.5 -23t-90 -7z" />
    <glyph glyph-name="udieresis" unicode="&#xfc;" horiz-adv-x="601" 
d="M174 608v90h48v-90h-48zM379 608v90h48v-90h-48zM303 -11q-62 0 -105 12t-66.5 29t-36 49.5t-15.5 60.5t-3 74v333h51v-334q0 -28 0.5 -41t3.5 -35.5t9.5 -34t19 -26.5t31 -22t46.5 -12.5t65 -5.5q32 0 56.5 3t42.5 11t30.5 15.5t20 22t12.5 25t6.5 31t2 32t0.5 35.5v7
v329h50v-329q0 -40 -2 -64t-8.5 -54t-21 -47.5t-38 -33.5t-61.5 -23t-90 -7z" />
    <glyph glyph-name="yacute" unicode="&#xfd;" horiz-adv-x="514" 
d="M125 -166h-46v43h43q35 0 54 14.5t32 49.5l23 60l-215 546h53l189 -485l189 485h51l-241 -612q-21 -54 -51 -77.5t-81 -23.5zM188 607l154 147h64l-166 -147h-52z" />
    <glyph glyph-name="thorn" unicode="&#xfe;" horiz-adv-x="637" 
d="M81 -165v941h51v-314q23 51 74.5 74.5t143.5 23.5q129 0 181 -71.5t52 -213.5q0 -141 -52.5 -213t-182.5 -72q-93 0 -143 23t-73 76v-254h-51zM342 38q105 0 147.5 58.5t42.5 177.5q0 120 -42 179t-148 59q-114 0 -162 -52t-48 -186t48 -185t162 -51z" />
    <glyph glyph-name="ydieresis" unicode="&#xff;" horiz-adv-x="514" 
d="M125 -166h-46v43h43q35 0 54 14.5t32 49.5l23 60l-215 546h53l189 -485l189 485h51l-241 -612q-21 -54 -51 -77.5t-81 -23.5zM131 608v90h48v-90h-48zM336 608v90h48v-90h-48z" />
    <glyph glyph-name="dotlessi" unicode="&#x131;" horiz-adv-x="221" 
d="M85 0v547h51v-547h-51z" />
    <glyph glyph-name="Lslash" unicode="&#x141;" horiz-adv-x="578" 
d="M1 322v46l90 50v323h53v-293l177 99v-46l-177 -99v-354h403v-48h-456v372z" />
    <glyph glyph-name="lslash" unicode="&#x142;" horiz-adv-x="338" 
d="M21 411v44l105 61v260h51v-231l118 69v-45l-118 -68v-379q0 -46 11.5 -61.5t53.5 -15.5h26v-44q-14 -2 -40 -2q-61 0 -81.5 27.5t-20.5 92.5v352z" />
    <glyph glyph-name="OE" unicode="&#x152;" horiz-adv-x="1260" 
d="M732 0v153q-78 -165 -319 -165q-186 0 -276 94t-90 289t90 288.5t276 93.5q241 0 319 -165v153h464v-49h-417v-280h407v-48h-407v-316h421v-48h-468zM413 37q163 0 239.5 83t76.5 251q0 167 -76.5 250t-239.5 83q-162 0 -237.5 -83t-75.5 -250q0 -168 75.5 -251
t237.5 -83z" />
    <glyph glyph-name="oe" unicode="&#x153;" horiz-adv-x="1047" 
d="M772 -11q-185 0 -231 132q-52 -132 -231 -132q-136 0 -196 70t-60 216q0 145 60 215t196 70q180 0 231 -133q47 133 227 133q45 0 80 -9t58 -22.5t39 -37.5t24.5 -45.5t12.5 -56.5t5 -59.5t0 -64.5h-421q0 -54 8.5 -92.5t30 -72t63.5 -50t104 -16.5q63 0 101 14.5
t78 43.5l29 -37q-91 -66 -208 -66zM310 36q109 0 158 58.5t49 179.5t-49 179.5t-158 58.5t-157 -58.5t-48 -179.5t48 -179.5t157 -58.5zM767 514q-108 0 -151.5 -52t-48.5 -151h371q-2 35 -3.5 54t-7.5 46.5t-17 43t-29 31t-46.5 22t-67.5 6.5z" />
    <glyph glyph-name="Scaron" unicode="&#x160;" horiz-adv-x="691" 
d="M313 787l-151 147h54l129 -115l128 115h53l-152 -147h-61zM340 -10q-165 0 -293 82l27 40q117 -74 265 -74q119 0 177.5 39.5t58.5 124.5q0 34 -11 59t-29 40.5t-47.5 26.5t-61 18.5t-74.5 15.5q-8 1 -12 2q-55 10 -85 17.5t-68.5 22.5t-57.5 34t-33 50.5t-14 74.5
q0 99 64 144.5t192 45.5q151 0 245 -64l-28 -42q-86 58 -217 58q-105 0 -154.5 -33.5t-49.5 -107.5q0 -31 10.5 -54t26 -37.5t47 -26.5t58.5 -18.5t76 -16.5q45 -9 65.5 -13t57 -13.5t53 -18.5t39.5 -24.5t33 -34t18 -45t8 -59.5q0 -213 -286 -213z" />
    <glyph glyph-name="scaron" unicode="&#x161;" horiz-adv-x="507" 
d="M222 607l-151 147h54l129 -115l128 115h53l-152 -147h-61zM254 -11q-126 0 -217 60l27 39q83 -53 192 -53q84 0 121.5 24t37.5 90q0 51 -32 71t-127 41q-55 12 -84.5 21.5t-58.5 26.5t-41 43.5t-12 66.5q0 141 195 141q112 0 191 -46l-24 -42q-72 41 -166 41
q-80 0 -113 -24t-33 -71q0 -50 32 -70.5t119 -39.5q46 -10 72 -17t55.5 -19t43.5 -27.5t23.5 -39t9.5 -55.5q0 -90 -50.5 -125.5t-160.5 -35.5z" />
    <glyph glyph-name="Ydieresis" unicode="&#x178;" horiz-adv-x="682" 
d="M315 0v297l-298 444h57l268 -397l268 397h55l-298 -442v-299h-52zM214 788v90h48v-90h-48zM419 788v90h48v-90h-48z" />
    <glyph glyph-name="Zcaron" unicode="&#x17d;" horiz-adv-x="657" 
d="M297 787l-151 147h54l129 -115l128 115h53l-152 -147h-61zM49 0v43l482 649h-465v49h528v-45l-481 -648h492v-48h-556z" />
    <glyph glyph-name="zcaron" unicode="&#x17e;" horiz-adv-x="490" 
d="M215 607l-151 147h54l129 -115l128 115h53l-152 -147h-61zM37 0v41l346 460h-328v46h389v-41l-346 -461h358v-45h-419z" />
    <glyph glyph-name="florin" unicode="&#x192;" horiz-adv-x="504" 
d="M89 401v47h115l29 138q8 40 15.5 61.5t25 46.5t48.5 36t78 11h24v-47h-22q-34 0 -56.5 -9t-35 -29t-18 -36t-11.5 -47l-27 -125h170v-47h-180l-119 -567h-51l120 567h-105z" />
    <glyph glyph-name="circumflex" unicode="&#x2c6;" 
d="M113 607l151 147h61l152 -147h-55l-128 114l-128 -114h-53z" />
    <glyph glyph-name="caron" unicode="&#x2c7;" 
d="M264 607l-151 147h54l129 -115l128 115h53l-152 -147h-61z" />
    <glyph glyph-name="breve" unicode="&#x2d8;" 
d="M295 598q-87 0 -126.5 36t-52.5 96l42 9q10 -44 40 -70.5t97 -26.5q66 0 96 26t41 71l42 -8q-13 -61 -52.5 -97t-126.5 -36z" />
    <glyph glyph-name="dotaccent" unicode="&#x2d9;" 
d="M270 606v96h51v-96h-51z" />
    <glyph glyph-name="ring" unicode="&#x2da;" 
d="M295 598q-56 0 -84.5 31.5t-28.5 83.5t28.5 84t84.5 32q54 0 83 -32.5t29 -83.5q0 -52 -29 -83.5t-83 -31.5zM295 632q39 0 58.5 22.5t19.5 58.5t-19.5 58.5t-58.5 22.5t-58.5 -22t-19.5 -59t19.5 -59t58.5 -22z" />
    <glyph glyph-name="ogonek" unicode="&#x2db;" 
d="M298 -209q-65 0 -89 24t-24 66q0 38 28 72t63 55h60q-47 -26 -75.5 -59.5t-28.5 -63.5q0 -24 14.5 -38.5t56.5 -14.5q47 0 85 21l19 -36q-46 -26 -109 -26z" />
    <glyph glyph-name="tilde" unicode="&#x2dc;" 
d="M153 611l-35 26q21 27 50.5 45.5t57.5 18.5q36 0 76 -23.5t63 -23.5q31 0 76 53l33 -26q-58 -71 -108 -71q-31 0 -73.5 23.5t-65.5 23.5q-41 0 -74 -46z" />
    <glyph glyph-name="hungarumlaut" unicode="&#x2dd;" 
d="M127 607l126 146h62l-139 -146h-49zM341 607l126 146h61l-138 -146h-49z" />
    <glyph glyph-name="Delta" unicode="&#x394;" horiz-adv-x="576" 
d="M33 501v46h103v65q0 78 33 121t116 43h56v-46h-52q-57 0 -79.5 -31t-22.5 -87v-65h154v-46h-154v-501h-51v501h-103zM357 -166v43h5q49 1 63.5 19t14.5 71v580h51v-580q0 -76 -25 -104.5t-101 -28.5h-8zM440 627v97h51v-97h-51z" />
    <glyph glyph-name="Delta" unicode="&#x2206;" horiz-adv-x="576" 
d="M33 501v46h103v65q0 78 33 121t116 43h56v-46h-52q-57 0 -79.5 -31t-22.5 -87v-65h154v-46h-154v-501h-51v501h-103zM357 -166v43h5q49 1 63.5 19t14.5 71v580h51v-580q0 -76 -25 -104.5t-101 -28.5h-8zM440 627v97h51v-97h-51z" />
    <glyph glyph-name="Omega" unicode="&#x3a9;" horiz-adv-x="832" 
d="M126 120q-90 108 -90 251q0 142 90 250q3 -2 7 -6q-87 -106 -87 -244t88 -244zM228 211q-57 70 -57 160t56 160l3.5 -3.5t4.5 -3.5q-54 -67 -54 -153q0 -88 54 -153zM264 243q-45 56 -45 128t45 128q2 -1 4 -3.5t4 -3.5q-43 -53 -43 -121t43 -121q-2 -1 -4 -3.5t-4 -3.5z
M316 289q-28 36 -28 82q0 47 28 81q1 -1 2.5 -2t2.5 -2.5t2 -2.5q-25 -33 -25 -74t26 -75l-3.5 -3.5t-4.5 -3.5zM349 320q-16 22 -16 51t16 51q1 -1 4 -3.5t4 -3.5q-14 -20 -14 -44t14 -44q-3 -2 -8 -7zM378 346q-7 12 -7 25t7 25l6 -5q-5 -10 -5 -20t5 -20q-2 -2 -6 -5z
M416 60q-116 0 -201 77l7 7q84 -74 194 -74q111 0 193 74q1 -1 3.5 -4t3.5 -4q-86 -76 -200 -76zM416 324q-15 0 -27 9l6 6q11 -7 21 -7q13 0 21 7q2 -2 5 -6q-10 -9 -26 -9zM482 319q-3 4 -7 7q14 20 14 45t-14 44l7 7q17 -22 17 -51t-17 -52zM292 269q-35 45 -35 102
q0 58 36 102l7 -7q-33 -43 -33 -95t33 -95q-5 -5 -8 -7zM416 -17q-144 0 -252 97l7 8q105 -95 245 -95q139 0 244 94l2 -1l4 -4l1 -2q-107 -97 -251 -97zM416 121q-92 0 -161 61l7 8q65 -59 154 -59t153 59q1 -2 3.5 -4t3.5 -4q-67 -61 -160 -61zM416 170q-72 0 -129 49l7 7
q52 -46 122 -46t121 46q1 -2 3.5 -4.5l3.5 -3.5q-54 -48 -128 -48zM416 209q-57 0 -103 38l7 8q43 -36 96 -36t96 36q2 -2 6 -8q-45 -38 -102 -38zM416 265q-37 0 -66 24l7 8q25 -22 59 -22q33 0 58 22q1 -1 3.5 -4t3.5 -4q-29 -24 -65 -24zM358 445l-8 8q29 24 66 24
t66 -24l-8 -8q-25 22 -58 22t-58 -22zM570 552q-65 59 -154 59q-87 0 -153 -58l-7 7q69 61 160 61q92 0 161 -61q-2 -3 -7 -8zM454 346l-6 5q5 10 5 20t-5 20l6 5q7 -12 7 -25t-7 -25zM468 333q-5 5 -8 7q10 15 10 31t-10 31l8 7q12 -16 12 -38q0 -21 -12 -38zM498 306
q-3 2 -8 7q19 25 19 58t-19 58l7 7q22 -28 22 -65q0 -34 -21 -65zM540 269l-3.5 3.5t-4.5 3.5q33 43 33 95q0 53 -34 95l8 7q36 -44 36 -102q0 -57 -35 -102zM568 243q-5 5 -8 7q43 53 43 121t-43 121l8 7q45 -56 45 -128t-45 -128zM604 211q-3 2 -8 7q55 66 55 153
q0 89 -55 153l8 7q57 -68 57 -160t-57 -160zM649 171q-1 1 -3.5 3t-3.5 3q69 85 69 194q0 110 -70 193l8 7q72 -86 72 -200t-72 -200zM706 120q-3 3 -8 7q88 106 88 244t-88 244l8 7q90 -108 90 -251q0 -142 -90 -251zM183 170q-72 88 -72 201t71 200q1 -1 3.5 -3t4.5 -4
q-69 -83 -69 -193q0 -111 69 -194zM334 306q-21 29 -21 65t21 65q3 -2 8 -7q-19 -25 -19 -58q0 -32 19 -57zM364 333q-12 17 -12 38t12 38l7 -7q-9 -16 -9 -31t9 -31zM395 403l-5 6q10 9 26 9t26 -9l-5 -6q-10 7 -21 7q-13 0 -21 -7zM384 416l-7 7q17 14 39 14q21 0 38 -14
q-4 -4 -6 -7q-14 12 -32 12q-17 0 -32 -12zM371 430l-7 8q22 19 52 19t52 -19l-7 -8q-19 17 -45 17t-45 -17zM295 516l-7 8q54 48 128 48t128 -49l-2 -1l-2 -4l-2 -2q-52 46 -122 46t-121 -46zM416 240q-48 0 -83 30l7 8q35 -28 76 -28q42 0 75 28l7 -7q-36 -31 -82 -31z
M416 285q-29 0 -53 19l7 8q22 -17 46 -17q25 0 45 17l7 -8q-22 -19 -52 -19zM416 305q-21 0 -40 14l7 7q17 -12 33 -12q17 0 32 12l7 -7q-17 -14 -39 -14zM341 464l-7 7q36 31 82 31q47 0 82 -30l-7 -8q-33 28 -75 28t-75 -28zM320 487l-7 8q44 38 103 38q58 0 102 -39
l-6 -7q-41 36 -96 36q-53 0 -96 -36zM610 597q-81 75 -194 75q-110 0 -194 -74l-7 7q87 77 201 77t201 -77zM172 654l-7 8q107 97 251 97t252 -97l-7 -8q-105 95 -245 95q-139 0 -244 -95zM516 290l-7 7q25 33 25 74t-26 75l8 7q28 -36 28 -82q0 -47 -28 -81z" />
    <glyph glyph-name="Omega" unicode="&#x2126;" horiz-adv-x="832" 
d="M126 120q-90 108 -90 251q0 142 90 250q3 -2 7 -6q-87 -106 -87 -244t88 -244zM228 211q-57 70 -57 160t56 160l3.5 -3.5t4.5 -3.5q-54 -67 -54 -153q0 -88 54 -153zM264 243q-45 56 -45 128t45 128q2 -1 4 -3.5t4 -3.5q-43 -53 -43 -121t43 -121q-2 -1 -4 -3.5t-4 -3.5z
M316 289q-28 36 -28 82q0 47 28 81q1 -1 2.5 -2t2.5 -2.5t2 -2.5q-25 -33 -25 -74t26 -75l-3.5 -3.5t-4.5 -3.5zM349 320q-16 22 -16 51t16 51q1 -1 4 -3.5t4 -3.5q-14 -20 -14 -44t14 -44q-3 -2 -8 -7zM378 346q-7 12 -7 25t7 25l6 -5q-5 -10 -5 -20t5 -20q-2 -2 -6 -5z
M416 60q-116 0 -201 77l7 7q84 -74 194 -74q111 0 193 74q1 -1 3.5 -4t3.5 -4q-86 -76 -200 -76zM416 324q-15 0 -27 9l6 6q11 -7 21 -7q13 0 21 7q2 -2 5 -6q-10 -9 -26 -9zM482 319q-3 4 -7 7q14 20 14 45t-14 44l7 7q17 -22 17 -51t-17 -52zM292 269q-35 45 -35 102
q0 58 36 102l7 -7q-33 -43 -33 -95t33 -95q-5 -5 -8 -7zM416 -17q-144 0 -252 97l7 8q105 -95 245 -95q139 0 244 94l2 -1l4 -4l1 -2q-107 -97 -251 -97zM416 121q-92 0 -161 61l7 8q65 -59 154 -59t153 59q1 -2 3.5 -4t3.5 -4q-67 -61 -160 -61zM416 170q-72 0 -129 49l7 7
q52 -46 122 -46t121 46q1 -2 3.5 -4.5l3.5 -3.5q-54 -48 -128 -48zM416 209q-57 0 -103 38l7 8q43 -36 96 -36t96 36q2 -2 6 -8q-45 -38 -102 -38zM416 265q-37 0 -66 24l7 8q25 -22 59 -22q33 0 58 22q1 -1 3.5 -4t3.5 -4q-29 -24 -65 -24zM358 445l-8 8q29 24 66 24
t66 -24l-8 -8q-25 22 -58 22t-58 -22zM570 552q-65 59 -154 59q-87 0 -153 -58l-7 7q69 61 160 61q92 0 161 -61q-2 -3 -7 -8zM454 346l-6 5q5 10 5 20t-5 20l6 5q7 -12 7 -25t-7 -25zM468 333q-5 5 -8 7q10 15 10 31t-10 31l8 7q12 -16 12 -38q0 -21 -12 -38zM498 306
q-3 2 -8 7q19 25 19 58t-19 58l7 7q22 -28 22 -65q0 -34 -21 -65zM540 269l-3.5 3.5t-4.5 3.5q33 43 33 95q0 53 -34 95l8 7q36 -44 36 -102q0 -57 -35 -102zM568 243q-5 5 -8 7q43 53 43 121t-43 121l8 7q45 -56 45 -128t-45 -128zM604 211q-3 2 -8 7q55 66 55 153
q0 89 -55 153l8 7q57 -68 57 -160t-57 -160zM649 171q-1 1 -3.5 3t-3.5 3q69 85 69 194q0 110 -70 193l8 7q72 -86 72 -200t-72 -200zM706 120q-3 3 -8 7q88 106 88 244t-88 244l8 7q90 -108 90 -251q0 -142 -90 -251zM183 170q-72 88 -72 201t71 200q1 -1 3.5 -3t4.5 -4
q-69 -83 -69 -193q0 -111 69 -194zM334 306q-21 29 -21 65t21 65q3 -2 8 -7q-19 -25 -19 -58q0 -32 19 -57zM364 333q-12 17 -12 38t12 38l7 -7q-9 -16 -9 -31t9 -31zM395 403l-5 6q10 9 26 9t26 -9l-5 -6q-10 7 -21 7q-13 0 -21 -7zM384 416l-7 7q17 14 39 14q21 0 38 -14
q-4 -4 -6 -7q-14 12 -32 12q-17 0 -32 -12zM371 430l-7 8q22 19 52 19t52 -19l-7 -8q-19 17 -45 17t-45 -17zM295 516l-7 8q54 48 128 48t128 -49l-2 -1l-2 -4l-2 -2q-52 46 -122 46t-121 -46zM416 240q-48 0 -83 30l7 8q35 -28 76 -28q42 0 75 28l7 -7q-36 -31 -82 -31z
M416 285q-29 0 -53 19l7 8q22 -17 46 -17q25 0 45 17l7 -8q-22 -19 -52 -19zM416 305q-21 0 -40 14l7 7q17 -12 33 -12q17 0 32 12l7 -7q-17 -14 -39 -14zM341 464l-7 7q36 31 82 31q47 0 82 -30l-7 -8q-33 28 -75 28t-75 -28zM320 487l-7 8q44 38 103 38q58 0 102 -39
l-6 -7q-41 36 -96 36q-53 0 -96 -36zM610 597q-81 75 -194 75q-110 0 -194 -74l-7 7q87 77 201 77t201 -77zM172 654l-7 8q107 97 251 97t252 -97l-7 -8q-105 95 -245 95q-139 0 -244 -95zM516 290l-7 7q25 33 25 74t-26 75l8 7q28 -36 28 -82q0 -47 -28 -81z" />
    <glyph glyph-name="pi" unicode="&#x3c0;" horiz-adv-x="839" 
d="M418 -12q-182 0 -276 103t-94 280t94 280t276 103t277 -103t95 -280q0 -176 -95 -279.5t-277 -103.5zM418 18q168 0 254.5 94.5t86.5 258.5t-86 258.5t-255 94.5q-168 0 -253.5 -94.5t-85.5 -258.5t85.5 -258.5t253.5 -94.5zM255 102v518h219q89 0 127 -34.5t38 -113.5
q0 -81 -38.5 -117.5t-124.5 -36.5h-181v-216h-40zM295 355h182q63 0 92 26.5t29 89.5q0 62 -29 86.5t-95 24.5h-179v-227z" />
    <glyph glyph-name="endash" unicode="&#x2013;" horiz-adv-x="687" 
d="M57 277v47h574v-47h-574z" />
    <glyph glyph-name="emdash" unicode="&#x2014;" horiz-adv-x="909" 
d="M57 277v47h796v-47h-796z" />
    <glyph glyph-name="quoteleft" unicode="&#x2018;" horiz-adv-x="223" 
d="M74 544v74q0 52 14 78.5t53 48.5l17 -29q-28 -16 -38 -32.5t-10 -47.5h39v-92h-75z" />
    <glyph glyph-name="quoteright" unicode="&#x2019;" horiz-adv-x="223" 
d="M82 541l-17 29q28 16 38 32t10 47h-39v92h75v-73q0 -53 -14 -79.5t-53 -47.5z" />
    <glyph glyph-name="quotesinglbase" unicode="&#x201a;" horiz-adv-x="223" 
d="M82 -89l-17 29q28 16 38 32.5t10 48.5h-39v91h75v-74q0 -52 -14 -79t-53 -48z" />
    <glyph glyph-name="quotedblleft" unicode="&#x201c;" horiz-adv-x="384" 
d="M74 543v73q0 52 14 78t52 47l17 -29q-27 -15 -37 -31.5t-10 -47.5h38v-90h-74zM236 543v73q0 52 14 78t52 47l17 -29q-27 -15 -37 -31.5t-10 -47.5h38v-90h-74z" />
    <glyph glyph-name="quotedblright" unicode="&#x201d;" horiz-adv-x="384" 
d="M82 543l-17 28q28 16 38 32.5t10 47.5h-39v90h74v-73q0 -52 -13.5 -78t-52.5 -47zM244 543l-17 28q28 16 38 32.5t10 47.5h-39v90h74v-73q0 -52 -14 -78t-52 -47z" />
    <glyph glyph-name="quotedblbase" unicode="&#x201e;" horiz-adv-x="384" 
d="M82 -88l-17 29q28 15 38 31.5t10 48.5h-39v90h74v-73q0 -52 -13.5 -78.5t-52.5 -47.5zM244 -88l-17 29q28 15 38 31.5t10 48.5h-39v90h74v-73q0 -51 -14 -78t-52 -48z" />
    <glyph glyph-name="dagger" unicode="&#x2020;" horiz-adv-x="524" 
d="M237 -166v662h-175v47h175v233h50v-233h175v-47h-175v-662h-50z" />
    <glyph glyph-name="daggerdbl" unicode="&#x2021;" horiz-adv-x="524" 
d="M237 -166v265h-175v48h175v349h-175v47h175v233h50v-233h175v-47h-175v-349h175v-48h-175v-265h-50z" />
    <glyph glyph-name="bullet" unicode="&#x2022;" horiz-adv-x="328" 
d="M104 237v134h121v-134h-121z" />
    <glyph glyph-name="ellipsis" unicode="&#x2026;" horiz-adv-x="635" 
d="M74 0v88h75v-88h-75zM279 0v88h75v-88h-75zM486 0v88h75v-88h-75z" />
    <glyph glyph-name="perthousand" unicode="&#x2030;" horiz-adv-x="1489" 
d="M236 292q-188 0 -188 230q0 231 188 231q98 0 142.5 -62.5t44.5 -168.5q0 -230 -187 -230zM236 335q139 0 139 187t-139 187q-140 0 -140 -187t140 -187zM831 -11q-187 0 -187 231t187 231t187 -231t-187 -231zM831 33q139 0 139 187t-139 187t-139 -187t139 -187z
M1254 -11q-187 0 -187 231t187 231t187 -231t-187 -231zM1254 33q139 0 139 187t-139 187q-140 0 -140 -187t140 -187zM302 0l412 742h50l-413 -742h-49z" />
    <glyph glyph-name="guilsinglleft" unicode="&#x2039;" horiz-adv-x="404" 
d="M242 0l-151 273l151 274h47l-148 -274l148 -273h-47z" />
    <glyph glyph-name="guilsinglright" unicode="&#x203a;" horiz-adv-x="404" 
d="M114 0l149 274l-149 273h48l151 -273l-151 -274h-48z" />
    <glyph glyph-name="fraction" unicode="&#x2044;" horiz-adv-x="466" 
d="M0 0l416 741h50l-416 -741h-50z" />
    <glyph glyph-name="fraction" unicode="&#x2215;" horiz-adv-x="466" 
d="M0 0l416 741h50l-416 -741h-50z" />
    <glyph glyph-name="Euro" unicode="&#x20ac;" horiz-adv-x="646" 
d="M43 428v45h112q13 139 72 209.5t182 70.5q98 0 167 -36l-23 -43q-61 32 -143 32q-100 0 -147.5 -59t-58.5 -174h279v-45h-282q-1 -17 -1 -53v-47h283v-46h-280q9 -125 56 -185.5t150 -60.5q89 0 145 34l26 -40q-68 -42 -173 -42q-126 0 -184 73t-69 221h-111v46h109
q-1 15 -1 46q0 36 1 54h-109z" />
    <glyph glyph-name="trademark" unicode="&#x2122;" horiz-adv-x="1076" 
d="M483 290v451h47l168 -395l168 395h48v-451h-41v375l-159 -375h-32l-160 375v-375h-39zM230 290v412h-160v39h362v-39h-161v-412h-41z" />
    <glyph glyph-name="partialdiff" unicode="&#x2202;" horiz-adv-x="832" 
d="M126 120q-90 108 -90 251q0 142 90 250q3 -2 7 -6q-87 -106 -87 -244t88 -244zM228 211q-57 70 -57 160t56 160l3.5 -3.5t4.5 -3.5q-54 -67 -54 -153q0 -88 54 -153zM264 243q-45 56 -45 128t45 128q2 -1 4 -3.5t4 -3.5q-43 -53 -43 -121t43 -121q-2 -1 -4 -3.5t-4 -3.5z
M316 289q-28 36 -28 82q0 47 28 81q1 -1 2.5 -2t2.5 -2.5t2 -2.5q-25 -33 -25 -74t26 -75l-3.5 -3.5t-4.5 -3.5zM349 320q-16 22 -16 51t16 51q1 -1 4 -3.5t4 -3.5q-14 -20 -14 -44t14 -44q-3 -2 -8 -7zM378 346q-7 12 -7 25t7 25l6 -5q-5 -10 -5 -20t5 -20q-2 -2 -6 -5z
M416 60q-116 0 -201 77l7 7q84 -74 194 -74q111 0 193 74q1 -1 3.5 -4t3.5 -4q-86 -76 -200 -76zM416 324q-15 0 -27 9l6 6q11 -7 21 -7q13 0 21 7q2 -2 5 -6q-10 -9 -26 -9zM482 319q-3 4 -7 7q14 20 14 45t-14 44l7 7q17 -22 17 -51t-17 -52zM292 269q-35 45 -35 102
q0 58 36 102l7 -7q-33 -43 -33 -95t33 -95q-5 -5 -8 -7zM416 -17q-144 0 -252 97l7 8q105 -95 245 -95q139 0 244 94l2 -1l4 -4l1 -2q-107 -97 -251 -97zM416 121q-92 0 -161 61l7 8q65 -59 154 -59t153 59q1 -2 3.5 -4t3.5 -4q-67 -61 -160 -61zM416 170q-72 0 -129 49l7 7
q52 -46 122 -46t121 46q1 -2 3.5 -4.5l3.5 -3.5q-54 -48 -128 -48zM416 209q-57 0 -103 38l7 8q43 -36 96 -36t96 36q2 -2 6 -8q-45 -38 -102 -38zM416 265q-37 0 -66 24l7 8q25 -22 59 -22q33 0 58 22q1 -1 3.5 -4t3.5 -4q-29 -24 -65 -24zM358 445l-8 8q29 24 66 24
t66 -24l-8 -8q-25 22 -58 22t-58 -22zM570 552q-65 59 -154 59q-87 0 -153 -58l-7 7q69 61 160 61q92 0 161 -61q-2 -3 -7 -8zM454 346l-6 5q5 10 5 20t-5 20l6 5q7 -12 7 -25t-7 -25zM468 333q-5 5 -8 7q10 15 10 31t-10 31l8 7q12 -16 12 -38q0 -21 -12 -38zM498 306
q-3 2 -8 7q19 25 19 58t-19 58l7 7q22 -28 22 -65q0 -34 -21 -65zM540 269l-3.5 3.5t-4.5 3.5q33 43 33 95q0 53 -34 95l8 7q36 -44 36 -102q0 -57 -35 -102zM568 243q-5 5 -8 7q43 53 43 121t-43 121l8 7q45 -56 45 -128t-45 -128zM604 211q-3 2 -8 7q55 66 55 153
q0 89 -55 153l8 7q57 -68 57 -160t-57 -160zM649 171q-1 1 -3.5 3t-3.5 3q69 85 69 194q0 110 -70 193l8 7q72 -86 72 -200t-72 -200zM706 120q-3 3 -8 7q88 106 88 244t-88 244l8 7q90 -108 90 -251q0 -142 -90 -251zM183 170q-72 88 -72 201t71 200q1 -1 3.5 -3t4.5 -4
q-69 -83 -69 -193q0 -111 69 -194zM334 306q-21 29 -21 65t21 65q3 -2 8 -7q-19 -25 -19 -58q0 -32 19 -57zM364 333q-12 17 -12 38t12 38l7 -7q-9 -16 -9 -31t9 -31zM395 403l-5 6q10 9 26 9t26 -9l-5 -6q-10 7 -21 7q-13 0 -21 -7zM384 416l-7 7q17 14 39 14q21 0 38 -14
q-4 -4 -6 -7q-14 12 -32 12q-17 0 -32 -12zM371 430l-7 8q22 19 52 19t52 -19l-7 -8q-19 17 -45 17t-45 -17zM295 516l-7 8q54 48 128 48t128 -49l-2 -1l-2 -4l-2 -2q-52 46 -122 46t-121 -46zM416 240q-48 0 -83 30l7 8q35 -28 76 -28q42 0 75 28l7 -7q-36 -31 -82 -31z
M416 285q-29 0 -53 19l7 8q22 -17 46 -17q25 0 45 17l7 -8q-22 -19 -52 -19zM416 305q-21 0 -40 14l7 7q17 -12 33 -12q17 0 32 12l7 -7q-17 -14 -39 -14zM341 464l-7 7q36 31 82 31q47 0 82 -30l-7 -8q-33 28 -75 28t-75 -28zM320 487l-7 8q44 38 103 38q58 0 102 -39
l-6 -7q-41 36 -96 36q-53 0 -96 -36zM610 597q-81 75 -194 75q-110 0 -194 -74l-7 7q87 77 201 77t201 -77zM172 654l-7 8q107 97 251 97t252 -97l-7 -8q-105 95 -245 95q-139 0 -244 -95zM516 290l-7 7q25 33 25 74t-26 75l8 7q28 -36 28 -82q0 -47 -28 -81z" />
    <glyph glyph-name="product" unicode="&#x220f;" horiz-adv-x="832" 
d="M126 120q-90 108 -90 251q0 142 90 250q3 -2 7 -6q-87 -106 -87 -244t88 -244zM228 211q-57 70 -57 160t56 160l3.5 -3.5t4.5 -3.5q-54 -67 -54 -153q0 -88 54 -153zM264 243q-45 56 -45 128t45 128q2 -1 4 -3.5t4 -3.5q-43 -53 -43 -121t43 -121q-2 -1 -4 -3.5t-4 -3.5z
M316 289q-28 36 -28 82q0 47 28 81q1 -1 2.5 -2t2.5 -2.5t2 -2.5q-25 -33 -25 -74t26 -75l-3.5 -3.5t-4.5 -3.5zM349 320q-16 22 -16 51t16 51q1 -1 4 -3.5t4 -3.5q-14 -20 -14 -44t14 -44q-3 -2 -8 -7zM378 346q-7 12 -7 25t7 25l6 -5q-5 -10 -5 -20t5 -20q-2 -2 -6 -5z
M416 60q-116 0 -201 77l7 7q84 -74 194 -74q111 0 193 74q1 -1 3.5 -4t3.5 -4q-86 -76 -200 -76zM416 324q-15 0 -27 9l6 6q11 -7 21 -7q13 0 21 7q2 -2 5 -6q-10 -9 -26 -9zM482 319q-3 4 -7 7q14 20 14 45t-14 44l7 7q17 -22 17 -51t-17 -52zM292 269q-35 45 -35 102
q0 58 36 102l7 -7q-33 -43 -33 -95t33 -95q-5 -5 -8 -7zM416 -17q-144 0 -252 97l7 8q105 -95 245 -95q139 0 244 94l2 -1l4 -4l1 -2q-107 -97 -251 -97zM416 121q-92 0 -161 61l7 8q65 -59 154 -59t153 59q1 -2 3.5 -4t3.5 -4q-67 -61 -160 -61zM416 170q-72 0 -129 49l7 7
q52 -46 122 -46t121 46q1 -2 3.5 -4.5l3.5 -3.5q-54 -48 -128 -48zM416 209q-57 0 -103 38l7 8q43 -36 96 -36t96 36q2 -2 6 -8q-45 -38 -102 -38zM416 265q-37 0 -66 24l7 8q25 -22 59 -22q33 0 58 22q1 -1 3.5 -4t3.5 -4q-29 -24 -65 -24zM358 445l-8 8q29 24 66 24
t66 -24l-8 -8q-25 22 -58 22t-58 -22zM570 552q-65 59 -154 59q-87 0 -153 -58l-7 7q69 61 160 61q92 0 161 -61q-2 -3 -7 -8zM454 346l-6 5q5 10 5 20t-5 20l6 5q7 -12 7 -25t-7 -25zM468 333q-5 5 -8 7q10 15 10 31t-10 31l8 7q12 -16 12 -38q0 -21 -12 -38zM498 306
q-3 2 -8 7q19 25 19 58t-19 58l7 7q22 -28 22 -65q0 -34 -21 -65zM540 269l-3.5 3.5t-4.5 3.5q33 43 33 95q0 53 -34 95l8 7q36 -44 36 -102q0 -57 -35 -102zM568 243q-5 5 -8 7q43 53 43 121t-43 121l8 7q45 -56 45 -128t-45 -128zM604 211q-3 2 -8 7q55 66 55 153
q0 89 -55 153l8 7q57 -68 57 -160t-57 -160zM649 171q-1 1 -3.5 3t-3.5 3q69 85 69 194q0 110 -70 193l8 7q72 -86 72 -200t-72 -200zM706 120q-3 3 -8 7q88 106 88 244t-88 244l8 7q90 -108 90 -251q0 -142 -90 -251zM183 170q-72 88 -72 201t71 200q1 -1 3.5 -3t4.5 -4
q-69 -83 -69 -193q0 -111 69 -194zM334 306q-21 29 -21 65t21 65q3 -2 8 -7q-19 -25 -19 -58q0 -32 19 -57zM364 333q-12 17 -12 38t12 38l7 -7q-9 -16 -9 -31t9 -31zM395 403l-5 6q10 9 26 9t26 -9l-5 -6q-10 7 -21 7q-13 0 -21 -7zM384 416l-7 7q17 14 39 14q21 0 38 -14
q-4 -4 -6 -7q-14 12 -32 12q-17 0 -32 -12zM371 430l-7 8q22 19 52 19t52 -19l-7 -8q-19 17 -45 17t-45 -17zM295 516l-7 8q54 48 128 48t128 -49l-2 -1l-2 -4l-2 -2q-52 46 -122 46t-121 -46zM416 240q-48 0 -83 30l7 8q35 -28 76 -28q42 0 75 28l7 -7q-36 -31 -82 -31z
M416 285q-29 0 -53 19l7 8q22 -17 46 -17q25 0 45 17l7 -8q-22 -19 -52 -19zM416 305q-21 0 -40 14l7 7q17 -12 33 -12q17 0 32 12l7 -7q-17 -14 -39 -14zM341 464l-7 7q36 31 82 31q47 0 82 -30l-7 -8q-33 28 -75 28t-75 -28zM320 487l-7 8q44 38 103 38q58 0 102 -39
l-6 -7q-41 36 -96 36q-53 0 -96 -36zM610 597q-81 75 -194 75q-110 0 -194 -74l-7 7q87 77 201 77t201 -77zM172 654l-7 8q107 97 251 97t252 -97l-7 -8q-105 95 -245 95q-139 0 -244 -95zM516 290l-7 7q25 33 25 74t-26 75l8 7q28 -36 28 -82q0 -47 -28 -81z" />
    <glyph glyph-name="summation" unicode="&#x2211;" horiz-adv-x="832" 
d="M126 120q-90 108 -90 251q0 142 90 250q3 -2 7 -6q-87 -106 -87 -244t88 -244zM228 211q-57 70 -57 160t56 160l3.5 -3.5t4.5 -3.5q-54 -67 -54 -153q0 -88 54 -153zM264 243q-45 56 -45 128t45 128q2 -1 4 -3.5t4 -3.5q-43 -53 -43 -121t43 -121q-2 -1 -4 -3.5t-4 -3.5z
M316 289q-28 36 -28 82q0 47 28 81q1 -1 2.5 -2t2.5 -2.5t2 -2.5q-25 -33 -25 -74t26 -75l-3.5 -3.5t-4.5 -3.5zM349 320q-16 22 -16 51t16 51q1 -1 4 -3.5t4 -3.5q-14 -20 -14 -44t14 -44q-3 -2 -8 -7zM378 346q-7 12 -7 25t7 25l6 -5q-5 -10 -5 -20t5 -20q-2 -2 -6 -5z
M416 60q-116 0 -201 77l7 7q84 -74 194 -74q111 0 193 74q1 -1 3.5 -4t3.5 -4q-86 -76 -200 -76zM416 324q-15 0 -27 9l6 6q11 -7 21 -7q13 0 21 7q2 -2 5 -6q-10 -9 -26 -9zM482 319q-3 4 -7 7q14 20 14 45t-14 44l7 7q17 -22 17 -51t-17 -52zM292 269q-35 45 -35 102
q0 58 36 102l7 -7q-33 -43 -33 -95t33 -95q-5 -5 -8 -7zM416 -17q-144 0 -252 97l7 8q105 -95 245 -95q139 0 244 94l2 -1l4 -4l1 -2q-107 -97 -251 -97zM416 121q-92 0 -161 61l7 8q65 -59 154 -59t153 59q1 -2 3.5 -4t3.5 -4q-67 -61 -160 -61zM416 170q-72 0 -129 49l7 7
q52 -46 122 -46t121 46q1 -2 3.5 -4.5l3.5 -3.5q-54 -48 -128 -48zM416 209q-57 0 -103 38l7 8q43 -36 96 -36t96 36q2 -2 6 -8q-45 -38 -102 -38zM416 265q-37 0 -66 24l7 8q25 -22 59 -22q33 0 58 22q1 -1 3.5 -4t3.5 -4q-29 -24 -65 -24zM358 445l-8 8q29 24 66 24
t66 -24l-8 -8q-25 22 -58 22t-58 -22zM570 552q-65 59 -154 59q-87 0 -153 -58l-7 7q69 61 160 61q92 0 161 -61q-2 -3 -7 -8zM454 346l-6 5q5 10 5 20t-5 20l6 5q7 -12 7 -25t-7 -25zM468 333q-5 5 -8 7q10 15 10 31t-10 31l8 7q12 -16 12 -38q0 -21 -12 -38zM498 306
q-3 2 -8 7q19 25 19 58t-19 58l7 7q22 -28 22 -65q0 -34 -21 -65zM540 269l-3.5 3.5t-4.5 3.5q33 43 33 95q0 53 -34 95l8 7q36 -44 36 -102q0 -57 -35 -102zM568 243q-5 5 -8 7q43 53 43 121t-43 121l8 7q45 -56 45 -128t-45 -128zM604 211q-3 2 -8 7q55 66 55 153
q0 89 -55 153l8 7q57 -68 57 -160t-57 -160zM649 171q-1 1 -3.5 3t-3.5 3q69 85 69 194q0 110 -70 193l8 7q72 -86 72 -200t-72 -200zM706 120q-3 3 -8 7q88 106 88 244t-88 244l8 7q90 -108 90 -251q0 -142 -90 -251zM183 170q-72 88 -72 201t71 200q1 -1 3.5 -3t4.5 -4
q-69 -83 -69 -193q0 -111 69 -194zM334 306q-21 29 -21 65t21 65q3 -2 8 -7q-19 -25 -19 -58q0 -32 19 -57zM364 333q-12 17 -12 38t12 38l7 -7q-9 -16 -9 -31t9 -31zM395 403l-5 6q10 9 26 9t26 -9l-5 -6q-10 7 -21 7q-13 0 -21 -7zM384 416l-7 7q17 14 39 14q21 0 38 -14
q-4 -4 -6 -7q-14 12 -32 12q-17 0 -32 -12zM371 430l-7 8q22 19 52 19t52 -19l-7 -8q-19 17 -45 17t-45 -17zM295 516l-7 8q54 48 128 48t128 -49l-2 -1l-2 -4l-2 -2q-52 46 -122 46t-121 -46zM416 240q-48 0 -83 30l7 8q35 -28 76 -28q42 0 75 28l7 -7q-36 -31 -82 -31z
M416 285q-29 0 -53 19l7 8q22 -17 46 -17q25 0 45 17l7 -8q-22 -19 -52 -19zM416 305q-21 0 -40 14l7 7q17 -12 33 -12q17 0 32 12l7 -7q-17 -14 -39 -14zM341 464l-7 7q36 31 82 31q47 0 82 -30l-7 -8q-33 28 -75 28t-75 -28zM320 487l-7 8q44 38 103 38q58 0 102 -39
l-6 -7q-41 36 -96 36q-53 0 -96 -36zM610 597q-81 75 -194 75q-110 0 -194 -74l-7 7q87 77 201 77t201 -77zM172 654l-7 8q107 97 251 97t252 -97l-7 -8q-105 95 -245 95q-139 0 -244 -95zM516 290l-7 7q25 33 25 74t-26 75l8 7q28 -36 28 -82q0 -47 -28 -81z" />
    <glyph glyph-name="minus" unicode="&#x2212;" horiz-adv-x="688" 
d="M110 329v48h467v-48h-467z" />
    <glyph glyph-name="radical" unicode="&#x221a;" horiz-adv-x="653" 
d="M232 -5l-158 400h53l133 -337l269 683h50l-294 -746h-53z" />
    <glyph glyph-name="infinity" unicode="&#x221e;" horiz-adv-x="880" 
d="M440 0v501h-253v-501h-51v501h-103v46h103v65q0 78 33 121t116 43h56v-46h-52q-57 0 -79.5 -31t-22.5 -87v-65h253v65q0 78 33 121t116 43h56v-46h-52q-57 0 -79.5 -31t-22.5 -87v-65h154v-46h-154v-501h-51zM745 0v547h50v-547h-50zM744 627v97h52v-97h-52z" />
    <glyph glyph-name="integral" unicode="&#x222b;" horiz-adv-x="832" 
d="M126 120q-90 108 -90 251q0 142 90 250q3 -2 7 -6q-87 -106 -87 -244t88 -244zM228 211q-57 70 -57 160t56 160l3.5 -3.5t4.5 -3.5q-54 -67 -54 -153q0 -88 54 -153zM264 243q-45 56 -45 128t45 128q2 -1 4 -3.5t4 -3.5q-43 -53 -43 -121t43 -121q-2 -1 -4 -3.5t-4 -3.5z
M316 289q-28 36 -28 82q0 47 28 81q1 -1 2.5 -2t2.5 -2.5t2 -2.5q-25 -33 -25 -74t26 -75l-3.5 -3.5t-4.5 -3.5zM349 320q-16 22 -16 51t16 51q1 -1 4 -3.5t4 -3.5q-14 -20 -14 -44t14 -44q-3 -2 -8 -7zM378 346q-7 12 -7 25t7 25l6 -5q-5 -10 -5 -20t5 -20q-2 -2 -6 -5z
M416 60q-116 0 -201 77l7 7q84 -74 194 -74q111 0 193 74q1 -1 3.5 -4t3.5 -4q-86 -76 -200 -76zM416 324q-15 0 -27 9l6 6q11 -7 21 -7q13 0 21 7q2 -2 5 -6q-10 -9 -26 -9zM482 319q-3 4 -7 7q14 20 14 45t-14 44l7 7q17 -22 17 -51t-17 -52zM292 269q-35 45 -35 102
q0 58 36 102l7 -7q-33 -43 -33 -95t33 -95q-5 -5 -8 -7zM416 -17q-144 0 -252 97l7 8q105 -95 245 -95q139 0 244 94l2 -1l4 -4l1 -2q-107 -97 -251 -97zM416 121q-92 0 -161 61l7 8q65 -59 154 -59t153 59q1 -2 3.5 -4t3.5 -4q-67 -61 -160 -61zM416 170q-72 0 -129 49l7 7
q52 -46 122 -46t121 46q1 -2 3.5 -4.5l3.5 -3.5q-54 -48 -128 -48zM416 209q-57 0 -103 38l7 8q43 -36 96 -36t96 36q2 -2 6 -8q-45 -38 -102 -38zM416 265q-37 0 -66 24l7 8q25 -22 59 -22q33 0 58 22q1 -1 3.5 -4t3.5 -4q-29 -24 -65 -24zM358 445l-8 8q29 24 66 24
t66 -24l-8 -8q-25 22 -58 22t-58 -22zM570 552q-65 59 -154 59q-87 0 -153 -58l-7 7q69 61 160 61q92 0 161 -61q-2 -3 -7 -8zM454 346l-6 5q5 10 5 20t-5 20l6 5q7 -12 7 -25t-7 -25zM468 333q-5 5 -8 7q10 15 10 31t-10 31l8 7q12 -16 12 -38q0 -21 -12 -38zM498 306
q-3 2 -8 7q19 25 19 58t-19 58l7 7q22 -28 22 -65q0 -34 -21 -65zM540 269l-3.5 3.5t-4.5 3.5q33 43 33 95q0 53 -34 95l8 7q36 -44 36 -102q0 -57 -35 -102zM568 243q-5 5 -8 7q43 53 43 121t-43 121l8 7q45 -56 45 -128t-45 -128zM604 211q-3 2 -8 7q55 66 55 153
q0 89 -55 153l8 7q57 -68 57 -160t-57 -160zM649 171q-1 1 -3.5 3t-3.5 3q69 85 69 194q0 110 -70 193l8 7q72 -86 72 -200t-72 -200zM706 120q-3 3 -8 7q88 106 88 244t-88 244l8 7q90 -108 90 -251q0 -142 -90 -251zM183 170q-72 88 -72 201t71 200q1 -1 3.5 -3t4.5 -4
q-69 -83 -69 -193q0 -111 69 -194zM334 306q-21 29 -21 65t21 65q3 -2 8 -7q-19 -25 -19 -58q0 -32 19 -57zM364 333q-12 17 -12 38t12 38l7 -7q-9 -16 -9 -31t9 -31zM395 403l-5 6q10 9 26 9t26 -9l-5 -6q-10 7 -21 7q-13 0 -21 -7zM384 416l-7 7q17 14 39 14q21 0 38 -14
q-4 -4 -6 -7q-14 12 -32 12q-17 0 -32 -12zM371 430l-7 8q22 19 52 19t52 -19l-7 -8q-19 17 -45 17t-45 -17zM295 516l-7 8q54 48 128 48t128 -49l-2 -1l-2 -4l-2 -2q-52 46 -122 46t-121 -46zM416 240q-48 0 -83 30l7 8q35 -28 76 -28q42 0 75 28l7 -7q-36 -31 -82 -31z
M416 285q-29 0 -53 19l7 8q22 -17 46 -17q25 0 45 17l7 -8q-22 -19 -52 -19zM416 305q-21 0 -40 14l7 7q17 -12 33 -12q17 0 32 12l7 -7q-17 -14 -39 -14zM341 464l-7 7q36 31 82 31q47 0 82 -30l-7 -8q-33 28 -75 28t-75 -28zM320 487l-7 8q44 38 103 38q58 0 102 -39
l-6 -7q-41 36 -96 36q-53 0 -96 -36zM610 597q-81 75 -194 75q-110 0 -194 -74l-7 7q87 77 201 77t201 -77zM172 654l-7 8q107 97 251 97t252 -97l-7 -8q-105 95 -245 95q-139 0 -244 -95zM516 290l-7 7q25 33 25 74t-26 75l8 7q28 -36 28 -82q0 -47 -28 -81z" />
    <glyph glyph-name="approxequal" unicode="&#x2248;" horiz-adv-x="688" 
d="M150 402l-32 25q27 34 62.5 58t71.5 24q46 0 101 -30t87 -30q40 0 97 67l32 -27q-71 -84 -129 -84q-38 0 -93 30t-94 30q-53 0 -103 -63zM150 184l-32 25q27 34 62.5 57.5t71.5 23.5q46 0 101 -29.5t87 -29.5q40 0 97 67l32 -27q-71 -84 -129 -84q-38 0 -93 29.5
t-94 29.5q-53 0 -103 -62z" />
    <glyph glyph-name="notequal" unicode="&#x2260;" horiz-adv-x="670" 
d="M440 0v501h-253v-501h-51v501h-103v46h103v65q0 78 33 121t116 43h56v-46h-52q-57 0 -79.5 -31t-22.5 -87v-65h253v65q0 78 33 121t116 43h56v-46h-52q-57 0 -79.5 -31t-22.5 -87v-65h154v-46h-154v-501h-51z" />
    <glyph glyph-name="lessequal" unicode="&#x2264;" horiz-adv-x="688" 
d="M546 114l-444 217v42l444 217v-48l-394 -191l394 -190v-47zM102 21v46h444v-46h-444z" />
    <glyph glyph-name="greaterequal" unicode="&#x2265;" horiz-adv-x="688" 
d="M142 114v47l394 190l-394 191v48l443 -217v-42zM142 21v46h443v-46h-443z" />
    <glyph glyph-name="lozenge" unicode="&#x25ca;" horiz-adv-x="698" 
d="M572 -1q-81 0 -106.5 31.5t-25.5 100.5v370h-253v-501h-51v501h-103v46h103v65q0 78 33 121t116 43h56v-46h-52q-57 0 -79.5 -31t-22.5 -87v-65h254l8 176l41 6v-182h158v-46h-158v-366q0 -47 16.5 -68t71.5 -21h70v-46q-5 -1 -76 -1z" />
    <glyph glyph-name="apple" unicode="&#xf8ff;" horiz-adv-x="832" 
d="M126 120q-90 108 -90 251q0 142 90 250q3 -2 7 -6q-87 -106 -87 -244t88 -244zM228 211q-57 70 -57 160t56 160l3.5 -3.5t4.5 -3.5q-54 -67 -54 -153q0 -88 54 -153zM264 243q-45 56 -45 128t45 128q2 -1 4 -3.5t4 -3.5q-43 -53 -43 -121t43 -121q-2 -1 -4 -3.5t-4 -3.5z
M316 289q-28 36 -28 82q0 47 28 81q1 -1 2.5 -2t2.5 -2.5t2 -2.5q-25 -33 -25 -74t26 -75l-3.5 -3.5t-4.5 -3.5zM349 320q-16 22 -16 51t16 51q1 -1 4 -3.5t4 -3.5q-14 -20 -14 -44t14 -44q-3 -2 -8 -7zM378 346q-7 12 -7 25t7 25l6 -5q-5 -10 -5 -20t5 -20q-2 -2 -6 -5z
M416 60q-116 0 -201 77l7 7q84 -74 194 -74q111 0 193 74q1 -1 3.5 -4t3.5 -4q-86 -76 -200 -76zM416 324q-15 0 -27 9l6 6q11 -7 21 -7q13 0 21 7q2 -2 5 -6q-10 -9 -26 -9zM482 319q-3 4 -7 7q14 20 14 45t-14 44l7 7q17 -22 17 -51t-17 -52zM292 269q-35 45 -35 102
q0 58 36 102l7 -7q-33 -43 -33 -95t33 -95q-5 -5 -8 -7zM416 -17q-144 0 -252 97l7 8q105 -95 245 -95q139 0 244 94l2 -1l4 -4l1 -2q-107 -97 -251 -97zM416 121q-92 0 -161 61l7 8q65 -59 154 -59t153 59q1 -2 3.5 -4t3.5 -4q-67 -61 -160 -61zM416 170q-72 0 -129 49l7 7
q52 -46 122 -46t121 46q1 -2 3.5 -4.5l3.5 -3.5q-54 -48 -128 -48zM416 209q-57 0 -103 38l7 8q43 -36 96 -36t96 36q2 -2 6 -8q-45 -38 -102 -38zM416 265q-37 0 -66 24l7 8q25 -22 59 -22q33 0 58 22q1 -1 3.5 -4t3.5 -4q-29 -24 -65 -24zM358 445l-8 8q29 24 66 24
t66 -24l-8 -8q-25 22 -58 22t-58 -22zM570 552q-65 59 -154 59q-87 0 -153 -58l-7 7q69 61 160 61q92 0 161 -61q-2 -3 -7 -8zM454 346l-6 5q5 10 5 20t-5 20l6 5q7 -12 7 -25t-7 -25zM468 333q-5 5 -8 7q10 15 10 31t-10 31l8 7q12 -16 12 -38q0 -21 -12 -38zM498 306
q-3 2 -8 7q19 25 19 58t-19 58l7 7q22 -28 22 -65q0 -34 -21 -65zM540 269l-3.5 3.5t-4.5 3.5q33 43 33 95q0 53 -34 95l8 7q36 -44 36 -102q0 -57 -35 -102zM568 243q-5 5 -8 7q43 53 43 121t-43 121l8 7q45 -56 45 -128t-45 -128zM604 211q-3 2 -8 7q55 66 55 153
q0 89 -55 153l8 7q57 -68 57 -160t-57 -160zM649 171q-1 1 -3.5 3t-3.5 3q69 85 69 194q0 110 -70 193l8 7q72 -86 72 -200t-72 -200zM706 120q-3 3 -8 7q88 106 88 244t-88 244l8 7q90 -108 90 -251q0 -142 -90 -251zM183 170q-72 88 -72 201t71 200q1 -1 3.5 -3t4.5 -4
q-69 -83 -69 -193q0 -111 69 -194zM334 306q-21 29 -21 65t21 65q3 -2 8 -7q-19 -25 -19 -58q0 -32 19 -57zM364 333q-12 17 -12 38t12 38l7 -7q-9 -16 -9 -31t9 -31zM395 403l-5 6q10 9 26 9t26 -9l-5 -6q-10 7 -21 7q-13 0 -21 -7zM384 416l-7 7q17 14 39 14q21 0 38 -14
q-4 -4 -6 -7q-14 12 -32 12q-17 0 -32 -12zM371 430l-7 8q22 19 52 19t52 -19l-7 -8q-19 17 -45 17t-45 -17zM295 516l-7 8q54 48 128 48t128 -49l-2 -1l-2 -4l-2 -2q-52 46 -122 46t-121 -46zM416 240q-48 0 -83 30l7 8q35 -28 76 -28q42 0 75 28l7 -7q-36 -31 -82 -31z
M416 285q-29 0 -53 19l7 8q22 -17 46 -17q25 0 45 17l7 -8q-22 -19 -52 -19zM416 305q-21 0 -40 14l7 7q17 -12 33 -12q17 0 32 12l7 -7q-17 -14 -39 -14zM341 464l-7 7q36 31 82 31q47 0 82 -30l-7 -8q-33 28 -75 28t-75 -28zM320 487l-7 8q44 38 103 38q58 0 102 -39
l-6 -7q-41 36 -96 36q-53 0 -96 -36zM610 597q-81 75 -194 75q-110 0 -194 -74l-7 7q87 77 201 77t201 -77zM172 654l-7 8q107 97 251 97t252 -97l-7 -8q-105 95 -245 95q-139 0 -244 -95zM516 290l-7 7q25 33 25 74t-26 75l8 7q28 -36 28 -82q0 -47 -28 -81z" />
    </font>
</defs>
</svg>
