<?xml version="1.0" standalone="no"?>
<!DOCTYPE svg PUBLIC "-//W3C//DTD SVG 1.1//EN" "http://www.w3.org/Graphics/SVG/1.1/DTD/svg11.dtd" >
<svg>
<metadata>
Created by FontForge 20120731 at Thu Aug  4 22:41:30 2016
 By ,,,
Copyright (c) The Font Bureau, Inc., 2003. All rights reserved.
</metadata>
<defs>
<font id="Antenna-Light" horiz-adv-x="590" >
  <font-face 
    font-family="Antenna Light"
    font-weight="300"
    font-stretch="normal"
    units-per-em="1000"
    panose-1="2 0 5 3 0 0 0 2 0 4"
    ascent="800"
    descent="-200"
    x-height="552"
    cap-height="741"
    bbox="-54 -225 1507 941"
    underline-thickness="50"
    underline-position="-50"
    unicode-range="U+0020-FB02"
  />
<missing-glyph horiz-adv-x="235" 
 />
    <glyph glyph-name="fi" unicode="fi" horiz-adv-x="609" 
d="M31 483v69h104v51q0 84 36 128.5t128 44.5h60v-67h-52q-55 0 -76 -27.5t-21 -78.5v-51h149v-69h-149v-483h-75v483h-104zM452 0v552h76v-552h-76zM452 625v108h76v-108h-76z" />
    <glyph glyph-name="fl" unicode="fl" horiz-adv-x="663" 
d="M31 483v69h104v58q0 84 36 128.5t128 44.5h60v-67h-52q-55 0 -76 -27.5t-21 -78.5v-58h149v-69h-149v-483h-75v483h-104zM567 -1q-66 0 -90.5 30t-24.5 103v644h76v-636q0 -43 11.5 -58t51.5 -15h24v-66q-16 -2 -48 -2z" />
    <glyph glyph-name="f_f_l" unicode="ffl" horiz-adv-x="981" 
d="M452 0v483h-242v-483h-75v483h-104v69h104v51q0 84 36 128.5t128 44.5h60v-67h-52q-55 0 -76 -27.5t-21 -78.5v-51h242v51q0 84 36 128.5t128 44.5h61v-67h-53q-54 0 -75 -27.5t-21 -78.5v-51h149v-69h-149v-483h-76zM884 -1q-65 0 -89.5 30t-24.5 103v644h75v-636
q0 -43 11.5 -58t51.5 -15h24v-66q-14 -2 -48 -2z" />
    <glyph glyph-name="f_f_i" unicode="ffi" horiz-adv-x="926" 
d="M452 0v483h-242v-483h-75v483h-104v69h104v51q0 84 36 128.5t128 44.5h60v-67h-52q-55 0 -76 -27.5t-21 -78.5v-51h242v51q0 84 36 128.5t128 44.5h61v-67h-53q-54 0 -75 -27.5t-21 -78.5v-51h149v-69h-149v-483h-76zM770 0v552h75v-552h-75zM769 625v108h77v-108h-77z
" />
    <glyph glyph-name="f_j" unicode="fj" horiz-adv-x="609" 
d="M31 483v69h104v51q0 84 36 128.5t128 44.5h60v-67h-52q-55 0 -76 -27.5t-21 -78.5v-51h149v-69h-149v-483h-75v483h-104zM373 -167v63h7q46 1 59 18t13 68v570h76v-570q0 -86 -28.5 -117.5t-113.5 -31.5h-13zM452 625v108h76v-108h-76z" />
    <glyph glyph-name="f_f" unicode="ff" horiz-adv-x="701" 
d="M452 0v483h-242v-483h-75v483h-104v69h104v51q0 84 36 128.5t128 44.5h60v-67h-52q-55 0 -76 -27.5t-21 -78.5v-51h242v51q0 84 36 128.5t128 44.5h61v-67h-53q-54 0 -75 -27.5t-21 -78.5v-51h149v-69h-149v-483h-76z" />
    <glyph glyph-name=".notdef" horiz-adv-x="235" 
 />
    <glyph glyph-name=".null" horiz-adv-x="0" 
 />
    <glyph glyph-name="nonmarkingreturn" horiz-adv-x="333" 
 />
    <glyph glyph-name="space" unicode=" " horiz-adv-x="235" 
 />
    <glyph glyph-name="space" unicode="&#xa0;" horiz-adv-x="235" 
 />
    <glyph glyph-name="exclam" unicode="!" horiz-adv-x="358" 
d="M129 0v110h100v-110h-100zM146 204l-9 537h84l-9 -537h-66z" />
    <glyph glyph-name="quotedbl" unicode="&#x22;" horiz-adv-x="479" 
d="M105 455l-7 286h78l-6 -286h-65zM309 455l-6 286h78l-6 -286h-66z" />
    <glyph glyph-name="numbersign" unicode="#" horiz-adv-x="736" 
d="M143 0l43 222h-120v69h133l30 157h-163v70h177l43 223h73l-44 -223h161l44 223h72l-42 -223h121v-70h-135l-30 -157h165v-69h-178l-43 -222h-73l43 222h-160l-43 -222h-74zM267 288h170l32 164h-170z" />
    <glyph glyph-name="dollar" unicode="$" horiz-adv-x="664" 
d="M301 -94v94q-138 5 -236 72l37 57q89 -59 202 -64v294q-39 8 -65 15.5t-55.5 22t-46.5 33.5t-28.5 49t-11.5 70q0 93 49.5 139.5t154.5 52.5v65h70v-65q112 -8 181 -54l-37 -59q-55 37 -147 44v-257q42 -9 70 -17t59.5 -24t50 -36t31 -52t12.5 -74q0 -196 -220 -211v-95
h-70zM518 208q0 62 -35 90t-115 47v-279q78 7 114 41.5t36 100.5zM171 552q0 -53 32 -79.5t101 -43.5v244q-73 -5 -103 -34.5t-30 -86.5z" />
    <glyph glyph-name="percent" unicode="%" horiz-adv-x="1109" 
d="M244 284q-103 0 -151.5 62.5t-48.5 171.5t48.5 172t151.5 63q101 0 149.5 -63t48.5 -172t-48.5 -171.5t-149.5 -62.5zM244 346q129 0 129 172q0 171 -129 171q-130 0 -130 -171q0 -172 130 -172zM865 -10q-102 0 -150 62.5t-48 171.5t48 172t150 63t150.5 -63t48.5 -172
t-48.5 -171.5t-150.5 -62.5zM865 52q129 0 129 172q0 171 -129 171t-129 -171q0 -172 129 -172zM311 0l413 742h72l-413 -742h-72z" />
    <glyph glyph-name="ampersand" unicode="&#x26;" horiz-adv-x="788" 
d="M293 -10q-134 0 -190 49t-56 158q0 76 42 128.5t115 94.5q-39 97 -39 177q0 79 41.5 117.5t116.5 38.5t111 -37.5t36 -118.5q0 -30 -10.5 -56.5t-24.5 -45.5t-40 -39.5t-45 -32.5t-52 -31q58 -109 140 -187q31 -29 64 -56q57 78 109 280l66 -16q-54 -211 -120 -302
q72 -42 160 -42h11v-69h-13q-59 0 -106.5 11.5t-101.5 45.5q-79 -67 -214 -67zM293 54q98 0 158 44q-28 21 -70 62q-88 85 -149 202q-111 -73 -111 -164q0 -74 35 -109t137 -35zM238 597q0 -67 34 -149q64 39 97 71.5t33 77.5q0 46 -18 67.5t-61 21.5q-85 0 -85 -89z" />
    <glyph glyph-name="quotesingle" unicode="'" horiz-adv-x="275" 
d="M105 455l-7 287h78l-6 -287h-65z" />
    <glyph glyph-name="parenleft" unicode="(" horiz-adv-x="477" 
d="M328 -184q-86 72 -150 197t-64 287q0 157 65 287.5t149 200.5l54 -41q-80 -73 -135.5 -185.5t-55.5 -261.5t57 -261.5t134 -181.5z" />
    <glyph glyph-name="parenright" unicode=")" horiz-adv-x="477" 
d="M148 -184l-53 41q190 177 190 443q0 149 -57 264.5t-133 182.5l53 41q86 -72 150 -198.5t64 -289.5q0 -156 -64.5 -284.5t-149.5 -199.5z" />
    <glyph glyph-name="asterisk" unicode="*" horiz-adv-x="575" 
d="M257 268l7 191l-165 -100l-31 55l170 90l-170 92l31 55l165 -102l-7 193h61l-7 -193l165 102l31 -55l-170 -92l170 -90l-31 -55l-165 101l7 -192h-61z" />
    <glyph glyph-name="plus" unicode="+" horiz-adv-x="696" 
d="M310 113v204h-204v72h204v203h75v-203h204v-72h-204v-204h-75z" />
    <glyph glyph-name="comma" unicode="," horiz-adv-x="239" 
d="M86 -119l-22 41q33 18 44 33t11 45h-50v111h100v-84q0 -63 -16 -92t-67 -54z" />
    <glyph glyph-name="hyphen" unicode="-" horiz-adv-x="452" 
d="M52 272v71h347v-71h-347z" />
    <glyph glyph-name="hyphen" unicode="&#xad;" horiz-adv-x="452" 
d="M52 272v71h347v-71h-347z" />
    <glyph glyph-name="period" unicode="." horiz-adv-x="239" 
d="M69 0v111h100v-111h-100z" />
    <glyph glyph-name="slash" unicode="/" horiz-adv-x="494" 
d="M0 0l415 741h79l-415 -741h-79z" />
    <glyph glyph-name="zero" unicode="0" horiz-adv-x="729" 
d="M365 -11q-85 0 -142.5 27.5t-88 81t-42.5 118.5t-12 155q0 72 7 127t26 104.5t50.5 81.5t82.5 50.5t119 18.5q84 0 141 -27t87.5 -80.5t43 -119t12.5 -155.5q0 -89 -12.5 -154.5t-43 -119t-87.5 -81t-141 -27.5zM365 59q52 0 89.5 16t60 42.5t35.5 68t17.5 84.5t4.5 101
t-4.5 101.5t-17.5 84.5t-35.5 67t-60 41.5t-89.5 15.5t-89.5 -15.5t-60 -41.5t-35.5 -67.5t-17.5 -84t-4.5 -101.5q0 -58 4.5 -101t17.5 -85t35 -68t60 -42t90 -16z" />
    <glyph glyph-name="one" unicode="1" horiz-adv-x="373" 
d="M178 0v669h-141v72h216v-741h-75z" />
    <glyph glyph-name="two" unicode="2" horiz-adv-x="589" 
d="M38 0v64l249 250q93 94 124.5 140.5t31.5 111.5q0 61 -36.5 89t-121.5 28q-119 0 -200 -44l-34 62q99 52 240 52q115 0 171 -43t56 -138q0 -79 -37 -140t-132 -156l-208 -209h389v-67h-492z" />
    <glyph glyph-name="three" unicode="3" horiz-adv-x="611" 
d="M291 -12q-148 0 -269 69l38 60q113 -61 228 -61q98 0 140 35t42 125q0 82 -41 118t-159 36h-102v68h100q102 0 141.5 29.5t39.5 100.5q0 64 -37 90t-125 26q-119 0 -205 -52l-41 58q103 63 251 63q119 0 175 -39.5t56 -133.5q0 -72 -25.5 -115t-69.5 -56
q61 -13 88.5 -61.5t27.5 -136.5q0 -123 -62 -173t-191 -50z" />
    <glyph glyph-name="four" unicode="4" horiz-adv-x="667" 
d="M53 187v62l332 492h83l-331 -488h286l15 245h56v-245h138v-66h-138v-187h-72v187h-369z" />
    <glyph glyph-name="five" unicode="5" horiz-adv-x="636" 
d="M313 -11q-137 0 -256 68l39 61q116 -62 215 -62q95 0 148 39t53 141q0 101 -49.5 141.5t-140.5 40.5q-100 0 -175 -37l-64 19l19 341h433v-69h-365l-12 -220q66 35 180 35q119 0 184.5 -55t65.5 -194q0 -74 -20 -124.5t-59 -77t-85.5 -37t-110.5 -10.5z" />
    <glyph glyph-name="six" unicode="6" horiz-adv-x="689" 
d="M363 -11q-147 0 -217 72.5t-70 238.5q0 122 19 201.5t66.5 135t128.5 80t206 24.5h31v-69h-33q-98 0 -164 -17.5t-102 -53.5t-51.5 -76.5t-22.5 -99.5q57 73 229 73q135 0 190 -63.5t55 -188.5q0 -126 -60.5 -191.5t-204.5 -65.5zM364 55q106 0 147.5 48t41.5 141
t-42.5 141t-146.5 48q-96 0 -153.5 -42.5t-57.5 -123.5q0 -115 53.5 -163.5t157.5 -48.5z" />
    <glyph glyph-name="seven" unicode="7" horiz-adv-x="534" 
d="M140 0l296 672h-414v69h496v-61l-299 -680h-79z" />
    <glyph glyph-name="eight" unicode="8" horiz-adv-x="695" 
d="M348 -13q-280 0 -280 220q0 79 31.5 131.5t92.5 68.5q-99 31 -99 163q0 89 58 136t197 47t196.5 -47t57.5 -136q0 -62 -25 -105.5t-74 -57.5q125 -34 125 -200q0 -220 -280 -220zM348 53q104 0 153.5 39.5t49.5 119.5q0 160 -203 160q-105 0 -154.5 -39.5t-49.5 -120.5
q0 -80 49.5 -119.5t154.5 -39.5zM348 436q97 0 139 31t42 95t-42 95t-139 31q-98 0 -140 -31t-42 -95t42 -95t140 -31z" />
    <glyph glyph-name="nine" unicode="9" horiz-adv-x="689" 
d="M164 0v67h33q79 0 138 13t95 33.5t59 54t33 67.5t15 81q-57 -73 -228 -73q-135 0 -190 64.5t-55 187.5q0 126 60.5 192t204.5 66q147 0 217 -72.5t70 -238.5q0 -122 -19 -201.5t-66.5 -135.5t-128.5 -80.5t-206 -24.5h-32zM327 306q96 0 153.5 42.5t57.5 123.5
q0 115 -53 163.5t-156 48.5q-106 0 -148.5 -48t-42.5 -141q0 -92 43 -140.5t146 -48.5z" />
    <glyph glyph-name="colon" unicode=":" horiz-adv-x="259" 
d="M79 0v109h100v-109h-100zM79 443v109h100v-109h-100z" />
    <glyph glyph-name="semicolon" unicode=";" horiz-adv-x="259" 
d="M96 -119l-22 41q33 18 44 33t11 45h-50v109h100v-82q0 -63 -16 -92t-67 -54zM79 443v109h100v-109h-100z" />
    <glyph glyph-name="less" unicode="&#x3c;" horiz-adv-x="696" 
d="M552 91l-448 226v58l448 224v-71l-371 -182l371 -182v-73z" />
    <glyph glyph-name="equal" unicode="=" horiz-adv-x="696" 
d="M112 209v71h472v-71h-472zM112 425v70h472v-70h-472z" />
    <glyph glyph-name="greater" unicode="&#x3e;" horiz-adv-x="696" 
d="M144 91v73l371 181l-371 182v72l448 -225v-58z" />
    <glyph glyph-name="question" unicode="?" horiz-adv-x="664" 
d="M274 197q-10 98 12 144.5t98 89.5q74 42 97 67t23 73q0 57 -33.5 84t-135.5 27q-118 0 -217 -52l-33 66q103 57 255 57q136 0 188.5 -42t52.5 -134q0 -70 -32 -109t-107 -81q-68 -38 -84 -71t-9 -119h-75zM261 0v102h100v-102h-100z" />
    <glyph glyph-name="at" unicode="@" horiz-adv-x="1085" 
d="M549 -165q-458 0 -458 457q0 229 114 345.5t337 116.5q225 0 339.5 -116.5t114.5 -345.5q0 -148 -34.5 -203.5t-132.5 -55.5q-75 0 -100 23.5t-28 60.5q-24 -42 -70.5 -61t-126.5 -19q-215 0 -215 260q0 259 218 259q79 0 122.5 -17.5t63.5 -58.5l16 72l49 -3v-381
q0 -27 4.5 -44t24 -31t55.5 -14q65 0 85 45t20 168q0 414 -405 414q-402 0 -402 -414q0 -409 409 -409q158 0 277 58l21 -42q-126 -64 -298 -64zM517 98q89 0 130.5 45t41.5 154q0 108 -41 150.5t-131 42.5q-83 0 -120.5 -49t-37.5 -144q0 -199 158 -199z" />
    <glyph glyph-name="A" unicode="A" horiz-adv-x="723" 
d="M25 0l297 746h79l297 -746h-80l-68 171h-380l-67 -171h-78zM197 243h325l-162 408z" />
    <glyph glyph-name="B" unicode="B" horiz-adv-x="703" 
d="M87 0v741h322q121 0 178.5 -44.5t57.5 -135.5q0 -65 -26.5 -110.5t-75.5 -60.5q120 -30 120 -185q0 -110 -64.5 -157.5t-197.5 -47.5h-314zM164 71h245q91 0 133 33.5t42 107.5q0 71 -42.5 103.5t-134.5 32.5h-243v-277zM164 420h247q86 0 120 34.5t34 96.5
q0 59 -36.5 88.5t-117.5 29.5h-247v-249z" />
    <glyph glyph-name="C" unicode="C" horiz-adv-x="721" 
d="M409 -11q-365 0 -365 382q0 191 95 286.5t274 95.5q161 0 259 -93l-56 -56q-82 74 -204 74q-289 0 -289 -308q0 -307 290 -307q76 0 123 20t86 56l55 -53q-99 -97 -268 -97z" />
    <glyph glyph-name="D" unicode="D" horiz-adv-x="752" 
d="M87 0v741h242q212 0 296 -79.5t84 -290.5q0 -207 -90 -289t-303 -82h-229zM166 72h153q174 0 242.5 66.5t68.5 232.5q0 170 -62.5 233t-237.5 63h-164v-595z" />
    <glyph glyph-name="E" unicode="E" horiz-adv-x="639" 
d="M87 0v741h490v-75h-411v-245h401v-74h-401v-275h415v-72h-494z" />
    <glyph glyph-name="F" unicode="F" horiz-adv-x="600" 
d="M87 0v741h477v-75h-398v-251h389v-74h-389v-341h-79z" />
    <glyph glyph-name="G" unicode="G" horiz-adv-x="777" 
d="M408 -11q-193 0 -278.5 94t-85.5 288q0 382 368 382q174 0 270 -92l-56 -57q-85 74 -214 74q-146 0 -218 -75.5t-72 -232.5q0 -160 67.5 -235.5t221.5 -75.5q74 0 122 15t74.5 48.5t36.5 77t10 108.5v24h-250v73h328v-84q0 -65 -7.5 -112.5t-28.5 -91t-56.5 -70
t-93.5 -42.5t-138 -16z" />
    <glyph glyph-name="H" unicode="H" horiz-adv-x="777" 
d="M87 0v741h79v-316h445v316h78v-741h-78v348h-445v-348h-79z" />
    <glyph glyph-name="I" unicode="I" horiz-adv-x="267" 
d="M95 0v741h77v-741h-77z" />
    <glyph glyph-name="J" unicode="J" horiz-adv-x="400" 
d="M105 -1q-47 0 -75 1v72h67q78 0 110.5 33t32.5 107v529h77v-532q0 -112 -52 -161t-160 -49z" />
    <glyph glyph-name="K" unicode="K" horiz-adv-x="704" 
d="M577 0l-265 393l-148 -162v-231h-77v741h77v-409l375 409h91l-266 -291l302 -450h-89z" />
    <glyph glyph-name="L" unicode="L" horiz-adv-x="587" 
d="M87 0v741h79v-669h394v-72h-473z" />
    <glyph glyph-name="M" unicode="M" horiz-adv-x="914" 
d="M87 0v741h102l268 -632l270 632h100v-741h-77v610l-261 -610h-66l-261 610v-610h-75z" />
    <glyph glyph-name="N" unicode="N" horiz-adv-x="779" 
d="M87 0v741h86l443 -611v611h76v-741h-72l-457 629v-629h-76z" />
    <glyph glyph-name="O" unicode="O" horiz-adv-x="834" 
d="M416 -12q-372 0 -372 383q0 382 372 382q374 0 374 -382q0 -383 -374 -383zM416 61q295 0 295 309q0 308 -295 308q-293 0 -293 -308q0 -309 293 -309z" />
    <glyph glyph-name="P" unicode="P" horiz-adv-x="706" 
d="M87 0v741h325q129 0 189.5 -53.5t60.5 -167.5q0 -117 -61 -176t-190 -59h-247v-285h-77zM164 358h249q86 0 128.5 37t42.5 122q0 84 -42 117.5t-132 33.5h-246v-310z" />
    <glyph glyph-name="Q" unicode="Q" horiz-adv-x="834" 
d="M539 -182q-111 0 -150.5 39t-33.5 139q-156 13 -233.5 104t-77.5 271q0 196 92.5 289t279.5 93t280.5 -93t93.5 -289q0 -192 -89 -283t-269 -95q-5 -63 16.5 -84.5t90.5 -21.5h77v-68q-3 0 -35 -0.5t-42 -0.5zM416 61q154 0 224.5 77.5t70.5 231.5t-70.5 231t-224.5 77
q-153 0 -223 -77t-70 -231q0 -155 70 -232t223 -77z" />
    <glyph glyph-name="R" unicode="R" horiz-adv-x="718" 
d="M562 0l-177 302h-221v-302h-77v741h320q129 0 189.5 -53t60.5 -164q0 -194 -190 -219l179 -305h-84zM164 374h244q84 0 127 32.5t43 114.5t-42.5 114.5t-130.5 32.5h-241v-294z" />
    <glyph glyph-name="S" unicode="S" horiz-adv-x="703" 
d="M348 -10q-178 0 -307 85l40 60q119 -75 265 -75q115 0 168 34.5t53 110.5q0 19 -3.5 35t-13 28.5t-17.5 21.5t-27 17.5t-31 13t-39 10.5t-41.5 9t-48.5 9q-57 10 -90.5 18t-72 23t-58.5 35t-33.5 52.5t-13.5 76.5q0 105 66.5 152t201.5 47q161 0 258 -66l-42 -64
q-88 58 -216 58q-100 0 -145 -29.5t-45 -95.5q0 -28 10 -48t24.5 -33t44.5 -24t56.5 -16.5t73.5 -14.5q38 -7 59 -11t52 -11.5t49 -15.5t40 -19.5t34 -25.5t23.5 -32.5t16.5 -43t5 -53.5q0 -111 -72.5 -164.5t-223.5 -53.5z" />
    <glyph glyph-name="T" unicode="T" horiz-adv-x="688" 
d="M305 0v666h-278v75h635v-75h-278v-666h-79z" />
    <glyph glyph-name="U" unicode="U" horiz-adv-x="778" 
d="M388 -12q-76 0 -132.5 15.5t-89 40t-52 62.5t-26 75.5t-6.5 85.5v474h79v-465q0 -105 48 -160t179 -55q133 0 182.5 54.5t49.5 160.5v465h76v-474q0 -61 -12 -106.5t-43 -87t-95 -63.5t-158 -22z" />
    <glyph glyph-name="V" unicode="V" horiz-adv-x="723" 
d="M322 -5l-295 746h81l255 -647l253 647h81l-296 -746h-79z" />
    <glyph glyph-name="W" unicode="W" horiz-adv-x="1083" 
d="M274 -5l-239 746h81l195 -613l199 613h68l198 -613l196 613h76l-238 -746h-68l-200 617l-199 -617h-69z" />
    <glyph glyph-name="X" unicode="X" horiz-adv-x="709" 
d="M582 0l-231 329l-225 -329h-86l271 387l-247 354h86l207 -296l203 296h87l-249 -354l272 -387h-88z" />
    <glyph glyph-name="Y" unicode="Y" horiz-adv-x="700" 
d="M311 0v288l-298 453h86l252 -382l254 382h81l-297 -452v-289h-78z" />
    <glyph glyph-name="Z" unicode="Z" horiz-adv-x="665" 
d="M45 0v63l464 603h-447v75h544v-68l-462 -601h473v-72h-572z" />
    <glyph glyph-name="bracketleft" unicode="[" horiz-adv-x="462" 
d="M123 -165v941h238v-69h-161v-805h164v-67h-241z" />
    <glyph glyph-name="backslash" unicode="\" horiz-adv-x="494" 
d="M415 0l-415 741h79l415 -741h-79z" />
    <glyph glyph-name="bracketright" unicode="]" horiz-adv-x="462" 
d="M100 -165v67h162v805h-164v69h240v-941h-238z" />
    <glyph glyph-name="asciicircum" unicode="^" 
d="M100 601l152 156h85l152 -156h-76l-120 107l-118 -107h-75z" />
    <glyph glyph-name="underscore" unicode="_" horiz-adv-x="453" 
d="M-37 -121v62h527v-62h-527z" />
    <glyph glyph-name="grave" unicode="`" 
d="M300 610l-172 156h93l151 -156h-72z" />
    <glyph glyph-name="a" unicode="a" horiz-adv-x="620" 
d="M238 -10q-108 0 -151 43t-43 121q0 117 78.5 160.5t289.5 43.5h33q-1 38 -6.5 61.5t-21 41.5t-45 25.5t-76.5 7.5q-92 0 -165 -48l-40 59q33 23 90.5 41.5t120.5 18.5q70 0 112.5 -12t65.5 -41t30.5 -67.5t7.5 -102.5v-208q0 -45 9 -56t48 -11v-66q-5 -2 -30 -2
q-46 0 -64.5 15.5t-25.5 53.5q-26 -40 -76.5 -59t-140.5 -19zM249 55q104 0 150 46.5t46 147.5v40h-29q-123 0 -185.5 -11t-88 -38t-25.5 -81q0 -52 29.5 -78t102.5 -26z" />
    <glyph glyph-name="b" unicode="b" horiz-adv-x="647" 
d="M358 -10q-90 0 -138.5 17.5t-75.5 57.5l-14 -68l-54 5v774h76v-287q23 40 73 58t137 18q130 0 183 -74t53 -214t-54 -213.5t-186 -73.5zM347 58q97 0 135.5 54t38.5 162q0 110 -38 164.5t-136 54.5q-106 0 -150.5 -49t-44.5 -170t44 -168.5t151 -47.5z" />
    <glyph glyph-name="c" unicode="c" horiz-adv-x="563" 
d="M313 -10q-146 0 -205 73t-59 214q0 142 59 215t207 73q126 0 199 -79l-55 -52q-58 58 -144 58q-104 0 -147 -54t-43 -163t42.5 -163t147.5 -54q84 0 148 58l51 -48q-44 -40 -89.5 -59t-111.5 -19z" />
    <glyph glyph-name="d" unicode="d" horiz-adv-x="647" 
d="M286 -10q-131 0 -184 74t-53 215q0 139 54 212t185 73q89 0 137 -17.5t70 -56.5v286h76v-773l-59 -5l-9 71q-27 -42 -77 -60.5t-140 -18.5zM300 60q106 0 150.5 49t44.5 170q0 120 -43.5 167t-151.5 47q-98 0 -136 -53t-38 -161q0 -110 38 -164.5t136 -54.5z" />
    <glyph glyph-name="e" unicode="e" horiz-adv-x="593" 
d="M314 -11q-80 0 -134.5 21.5t-82 63t-38 89.5t-10.5 114q0 65 11.5 113.5t39 90t80.5 63t131 21.5q46 0 82.5 -9.5t60 -24t40.5 -40t25.5 -49t13 -59.5t5.5 -63t0 -69h-416q3 -97 43.5 -146.5t148.5 -49.5q62 0 100.5 14t77.5 42l41 -53q-90 -69 -219 -69zM309 497
q-98 0 -138.5 -45t-47.5 -132h343q-2 37 -4.5 57t-11.5 46.5t-24.5 40t-45 23.5t-71.5 10z" />
    <glyph glyph-name="f" unicode="f" horiz-adv-x="384" 
d="M31 483v69h104v51q0 84 36 128.5t128 44.5h60v-67h-52q-55 0 -76 -27.5t-21 -78.5v-51h149v-69h-149v-483h-75v483h-104z" />
    <glyph glyph-name="g" unicode="g" horiz-adv-x="597" 
d="M288 202q-54 0 -96 9q-17 -20 -17 -41q0 -26 23.5 -34t92.5 -8q152 0 209 -29t57 -112q0 -87 -62 -126.5t-210 -39.5q-139 0 -197 29t-58 109q0 115 109 137q-35 15 -35 65q0 41 26 74q-68 43 -68 145q0 94 54.5 139.5t171.5 45.5q28 0 54 -3l192 23v-63h-92
q74 -40 74 -142q0 -92 -55 -135t-173 -43zM288 268q82 0 117.5 26.5t35.5 85.5q0 114 -153 114q-81 0 -116.5 -27t-35.5 -87q0 -59 35.5 -85.5t116.5 -26.5zM287 -116q112 0 152.5 23.5t40.5 74.5q0 49 -40.5 64.5t-152.5 15.5q-57 0 -95 -7t-55.5 -20.5t-24 -28.5t-6.5 -36
q0 -49 42 -67.5t139 -18.5z" />
    <glyph glyph-name="h" unicode="h" horiz-adv-x="620" 
d="M76 0v776h76v-279q39 68 196 68q65 0 106 -15.5t60.5 -48.5t26 -69.5t6.5 -94.5v-337h-76v324q0 43 -4 68t-17.5 50.5t-44 36.5t-79.5 11q-102 0 -138 -46t-36 -134v-310h-76z" />
    <glyph glyph-name="i" unicode="i" horiz-adv-x="238" 
d="M81 0v552h75v-552h-75zM81 625v108h76v-108h-76z" />
    <glyph glyph-name="j" unicode="j" horiz-adv-x="238" 
d="M2 -167v63h6q46 1 59.5 18t13.5 68v570h75v-570q0 -86 -28 -117.5t-113 -31.5h-13zM81 625v108h76v-108h-76z" />
    <glyph glyph-name="k" unicode="k" horiz-adv-x="542" 
d="M76 0v776h75v-528l266 304h84l-200 -231l221 -321h-84l-187 266l-100 -113v-153h-75z" />
    <glyph glyph-name="l" unicode="l" horiz-adv-x="292" 
d="M196 -1q-66 0 -90.5 30t-24.5 103v644h75v-636q0 -43 11.5 -58t52.5 -15h24v-66q-16 -2 -48 -2z" />
    <glyph glyph-name="m" unicode="m" horiz-adv-x="993" 
d="M76 0v548l60 4l7 -58q39 71 199 71q85 0 122 -19t49 -56q44 75 214 75q52 0 88.5 -11.5t57 -29t31.5 -49t14 -61.5t3 -77v-337h-76v324q0 45 -3 68.5t-15.5 49.5t-42.5 37t-79 11q-53 0 -88 -13t-52 -39t-23 -55.5t-6 -72.5v-310h-75v324q0 45 -3 68.5t-15.5 49.5
t-42.5 37t-79 11q-53 0 -88 -13t-52 -39t-23 -55.5t-6 -72.5v-310h-76z" />
    <glyph glyph-name="n" unicode="n" horiz-adv-x="620" 
d="M76 0v548l60 4l7 -58q45 71 205 71q65 0 106 -15.5t60.5 -48.5t26 -69.5t6.5 -94.5v-337h-76v324q0 43 -4 68t-17.5 50.5t-44 36.5t-79.5 11q-102 0 -138 -46t-36 -134v-310h-76z" />
    <glyph glyph-name="o" unicode="o" horiz-adv-x="631" 
d="M315 -11q-140 0 -203 71t-63 217t63 217t203 71t203.5 -71t63.5 -217t-63.5 -217t-203.5 -71zM315 58q101 0 145.5 54t44.5 163q0 110 -44.5 164t-145.5 54t-145.5 -54t-44.5 -164q0 -109 44.5 -163t145.5 -54z" />
    <glyph glyph-name="p" unicode="p" horiz-adv-x="647" 
d="M76 -165v713l60 4l7 -66q23 41 74.5 60t144.5 19q131 0 183.5 -73.5t52.5 -214.5q0 -139 -53.5 -212.5t-185.5 -73.5q-89 0 -137 17.5t-70 56.5v-230h-76zM347 60q97 0 135.5 53.5t38.5 161.5q0 109 -38 163.5t-136 54.5q-106 0 -150.5 -48.5t-44.5 -169.5t44 -168
t151 -47z" />
    <glyph glyph-name="q" unicode="q" horiz-adv-x="647" 
d="M495 -165v229q-29 -40 -76 -57t-133 -17q-131 0 -184 74t-53 214t54 213.5t185 73.5q91 0 140 -17t75 -57l14 70l54 -5v-721h-76zM300 60q106 0 150.5 48.5t44.5 169.5t-43.5 168t-151.5 47q-98 0 -136 -53.5t-38 -161.5q0 -109 38.5 -163.5t135.5 -54.5z" />
    <glyph glyph-name="r" unicode="r" horiz-adv-x="359" 
d="M76 0v548l60 4l8 -74q17 34 67.5 57t123.5 24v-76q-183 0 -183 -185v-298h-76z" />
    <glyph glyph-name="s" unicode="s" horiz-adv-x="522" 
d="M260 -10q-135 0 -230 62l40 59q85 -55 194 -55q79 0 112.5 20.5t33.5 76.5q0 44 -29.5 61t-116.5 34q-45 9 -71.5 15.5t-56 19t-45 29t-25.5 42t-10 60.5q0 74 49 112.5t159 38.5q120 0 202 -48l-36 -62q-73 40 -165 40q-74 0 -104 -20.5t-30 -60.5q0 -43 29 -61.5
t108 -33.5q42 -8 63.5 -13.5t51 -14.5t44 -19.5t29.5 -26.5t21 -38t6 -51q0 -92 -52.5 -129t-170.5 -37z" />
    <glyph glyph-name="t" unicode="t" horiz-adv-x="406" 
d="M31 483v69h101l13 166l60 11v-177h152v-69h-152v-332q0 -44 15.5 -64t68.5 -20h68v-67q-8 -1 -80 -1q-88 0 -117.5 33.5t-29.5 109.5v341h-99z" />
    <glyph glyph-name="u" unicode="u" horiz-adv-x="614" 
d="M309 -10q-78 0 -126.5 15t-72 49.5t-30.5 72t-7 100.5v325h75v-327q0 -26 0.5 -38.5t3.5 -33.5t9 -32t17.5 -25t28.5 -20.5t42.5 -11.5t59.5 -5t59.5 5t42 11.5t28 21t17 25t8 33t3 34.5t0.5 40v323h74v-322q0 -51 -3.5 -83.5t-17 -65.5t-38 -50.5t-67.5 -29t-106 -11.5z
" />
    <glyph glyph-name="v" unicode="v" horiz-adv-x="543" 
d="M231 -5l-220 557h80l181 -467l182 467h78l-220 -557h-81z" />
    <glyph glyph-name="w" unicode="w" horiz-adv-x="876" 
d="M214 -5l-199 557h79l159 -447l149 447h75l148 -446l159 446h77l-199 -557h-75l-149 443l-149 -443h-75z" />
    <glyph glyph-name="x" unicode="x" horiz-adv-x="541" 
d="M436 0l-169 234l-165 -234h-82l208 288l-190 264h83l152 -210l149 210h82l-192 -265l209 -287h-85z" />
    <glyph glyph-name="y" unicode="y" horiz-adv-x="530" 
d="M126 -167q-38 0 -48 1v62h43q38 0 56.5 12.5t29.5 44.5l20 51l-216 548h80l176 -459l174 459h78l-238 -607q-23 -61 -57.5 -86.5t-97.5 -25.5z" />
    <glyph glyph-name="z" unicode="z" horiz-adv-x="502" 
d="M33 0v57l330 426h-313v69h410v-58l-330 -429h341v-65h-438z" />
    <glyph glyph-name="braceleft" unicode="{" horiz-adv-x="499" 
d="M324 -165q-92 0 -130.5 31.5t-38.5 98.5q0 33 27.5 131t27.5 123q0 32 -27.5 42.5t-100.5 10.5v66q71 0 99.5 10t28.5 45q0 25 -27.5 122.5t-27.5 130.5q0 67 38.5 98.5t130.5 31.5h77v-69h-63q-62 0 -84 -18t-22 -61q0 -23 26.5 -119.5t26.5 -127.5q0 -59 -56 -75
q56 -18 56 -76q0 -31 -26.5 -128t-26.5 -120q0 -44 22 -62t84 -18h63v-67h-77z" />
    <glyph glyph-name="bar" unicode="|" horiz-adv-x="324" 
d="M123 -165v941h77v-941h-77z" />
    <glyph glyph-name="braceright" unicode="}" horiz-adv-x="499" 
d="M98 -165v67h64q62 0 83.5 18t21.5 62q0 23 -26.5 120t-26.5 128q0 58 56 76q-56 17 -56 75q0 31 26.5 127.5t26.5 119.5q0 43 -22 61t-83 18h-64v69h77q92 0 131 -31.5t39 -98.5q0 -33 -28 -130.5t-28 -122.5q0 -33 28 -43.5t100 -10.5v-66q-71 0 -99.5 -10t-28.5 -44
q0 -25 28 -123t28 -131q0 -67 -39 -98.5t-131 -31.5h-77z" />
    <glyph glyph-name="asciitilde" unicode="~" 
d="M151 424l-48 37q60 74 122 74q36 0 76 -24t63 -24q31 0 78 54l46 -37q-66 -81 -123 -81q-31 0 -73.5 24.5t-65.5 24.5q-39 0 -75 -48z" />
    <glyph glyph-name="exclamdown" unicode="&#xa1;" horiz-adv-x="358" 
d="M137 0l9 537h67l8 -537h-84zM129 631v110h101v-110h-101z" />
    <glyph glyph-name="cent" unicode="&#xa2;" horiz-adv-x="558" 
d="M276 -94v88q-125 9 -175.5 80.5t-50.5 202.5t50.5 203t175.5 81v63h72v-63q99 -9 164 -75l-54 -51q-49 49 -115 56v-434q62 8 120 58l49 -47q-72 -66 -164 -74v-88h-72zM124 275q0 -100 35.5 -154t120.5 -63v433q-85 -9 -120.5 -63t-35.5 -153z" />
    <glyph glyph-name="sterling" unicode="&#xa3;" horiz-adv-x="611" 
d="M413 -8q-108 0 -205 51q-48 -43 -165 -43v66q62 0 92 13t37.5 35t7.5 68q0 48 -31 170h-114v64h97q-23 92 -23 146q0 192 216 192q105 0 195 -38l-30 -66q-68 32 -166 32q-77 0 -108.5 -33t-31.5 -96q0 -43 22 -137h230v-64h-214q28 -122 28 -169q0 -52 -9 -83
q84 -40 171 -40q55 0 72 22t17 79v24h68v-26q0 -91 -33.5 -129t-122.5 -38z" />
    <glyph glyph-name="currency" unicode="&#xa4;" horiz-adv-x="663" 
d="M39 417v67h116q16 134 78 201.5t186 67.5q105 0 178 -38l-35 -65q-59 32 -142 32q-91 0 -135.5 -50t-57.5 -148h264v-67h-269v-84h269v-67h-264q11 -104 55.5 -156t136.5 -52q87 0 144 35l38 -60q-72 -45 -185 -45q-126 0 -187 69.5t-75 208.5h-115v67h110v40q0 29 1 44
h-111z" />
    <glyph glyph-name="yen" unicode="&#xa5;" horiz-adv-x="625" 
d="M66 235v67h209v17l-259 422h80l217 -356l216 356h80l-259 -421v-18h210v-67h-210v-84h210v-67h-210v-84h-75v84h-209v67h209v84h-209z" />
    <glyph glyph-name="brokenbar" unicode="&#xa6;" horiz-adv-x="324" 
d="M123 -165v392h77v-392h-77zM123 384v392h77v-392h-77z" />
    <glyph glyph-name="section" unicode="&#xa7;" horiz-adv-x="544" 
d="M150 -9q-8 0 -32.5 0.5t-27.5 0.5v64h53q60 0 78 26t18 80v66q-185 9 -185 144q0 129 170 144v60q0 32 3 55t12.5 47t27 38.5t48 23.5t73.5 9q54 0 61 -1v-66h-53q-61 0 -79 -26t-18 -79v-60q191 -8 191 -145q0 -129 -175 -143v-65q0 -41 -5.5 -68t-21.5 -53t-50.5 -39
t-87.5 -13zM271 282q79 0 117 21t38 68q0 46 -38 66.5t-117 20.5q-78 0 -115.5 -20.5t-37.5 -66.5q0 -47 37.5 -68t115.5 -21z" />
    <glyph glyph-name="dieresis" unicode="&#xa8;" 
d="M155 612v102h70v-102h-70zM366 612v102h69v-102h-69z" />
    <glyph glyph-name="copyright" unicode="&#xa9;" horiz-adv-x="832" 
d="M422 117q-120 0 -183 65.5t-63 192.5t65.5 191.5t182.5 64.5q107 0 174 -62l-38 -39q-55 49 -137 49q-91 0 -141.5 -52t-50.5 -152q0 -101 49.5 -153t143.5 -52q87 0 141 50l36 -37q-68 -66 -179 -66zM414 -12q-181 0 -275.5 104t-94.5 279t94.5 279t275.5 104
t276.5 -104t95.5 -279t-95.5 -279t-276.5 -104zM414 25q167 0 251 93.5t84 252.5t-84 252.5t-251 93.5q-166 0 -249 -93t-83 -253t83 -253t249 -93z" />
    <glyph glyph-name="ordfeminine" unicode="&#xaa;" horiz-adv-x="589" 
d="M221 285q-156 0 -156 136q0 92 69.5 127.5t230.5 35.5h23q-2 62 -24 85.5t-92 23.5q-73 0 -131 -38l-35 50q27 18 73.5 32.5t97.5 14.5q56 0 90.5 -9.5t53 -33t24.5 -54.5t6 -83v-166q0 -37 7.5 -46t39.5 -9v-58q-2 0 -9 -0.5t-14 -0.5q-45 0 -61.5 14t-19.5 61
q-21 -43 -61 -62.5t-112 -19.5zM234 341q78 0 116 38t38 119v34h-19q-138 0 -190 -22.5t-52 -84.5q0 -84 107 -84zM107 150v59h346v-59h-346z" />
    <glyph glyph-name="guillemotleft" unicode="&#xab;" horiz-adv-x="677" 
d="M246 0l-151 275l151 277h68l-146 -277l146 -275h-68zM489 0l-151 275l151 277h69l-147 -277l147 -275h-69z" />
    <glyph glyph-name="logicalnot" unicode="&#xac;" horiz-adv-x="832" 
d="M126 120q-90 108 -90 251q0 142 90 250q3 -2 7 -6q-87 -106 -87 -244t88 -244zM228 211q-57 70 -57 160t56 160l3.5 -3.5t4.5 -3.5q-54 -67 -54 -153q0 -88 54 -153zM264 243q-45 56 -45 128t45 128q2 -1 4 -3.5t4 -3.5q-43 -53 -43 -121t43 -121q-2 -1 -4 -3.5t-4 -3.5z
M316 289q-28 36 -28 82q0 47 28 81q1 -1 2.5 -2t2.5 -2.5t2 -2.5q-25 -33 -25 -74t26 -75l-3.5 -3.5t-4.5 -3.5zM349 320q-16 22 -16 51t16 51q1 -1 4 -3.5t4 -3.5q-14 -20 -14 -44t14 -44q-3 -2 -8 -7zM378 346q-7 12 -7 25t7 25l6 -5q-5 -10 -5 -20t5 -20q-2 -2 -6 -5z
M416 60q-116 0 -201 77l7 7q84 -74 194 -74q111 0 193 74q1 -1 3.5 -4t3.5 -4q-86 -76 -200 -76zM416 324q-15 0 -27 9l6 6q11 -7 21 -7q13 0 21 7q2 -2 5 -6q-10 -9 -26 -9zM482 319q-3 4 -7 7q14 20 14 45t-14 44l7 7q17 -22 17 -51t-17 -52zM292 269q-35 45 -35 102
q0 58 36 102l7 -7q-33 -43 -33 -95t33 -95q-5 -5 -8 -7zM416 -17q-144 0 -252 97l7 8q105 -95 245 -95q139 0 244 94l2 -1l4 -4l1 -2q-107 -97 -251 -97zM416 121q-92 0 -161 61l7 8q65 -59 154 -59t153 59q1 -2 3.5 -4t3.5 -4q-67 -61 -160 -61zM416 170q-72 0 -129 49l7 7
q52 -46 122 -46t121 46q1 -2 3.5 -4.5l3.5 -3.5q-54 -48 -128 -48zM416 209q-57 0 -103 38l7 8q43 -36 96 -36t96 36q2 -2 6 -8q-45 -38 -102 -38zM416 265q-37 0 -66 24l7 8q25 -22 59 -22q33 0 58 22q1 -1 3.5 -4t3.5 -4q-29 -24 -65 -24zM358 445l-8 8q29 24 66 24
t66 -24l-8 -8q-25 22 -58 22t-58 -22zM570 552q-65 59 -154 59q-87 0 -153 -58l-7 7q69 61 160 61q92 0 161 -61q-2 -3 -7 -8zM454 346l-6 5q5 10 5 20t-5 20l6 5q7 -12 7 -25t-7 -25zM468 333q-5 5 -8 7q10 15 10 31t-10 31l8 7q12 -16 12 -38q0 -21 -12 -38zM498 306
q-3 2 -8 7q19 25 19 58t-19 58l7 7q22 -28 22 -65q0 -34 -21 -65zM540 269l-3.5 3.5t-4.5 3.5q33 43 33 95q0 53 -34 95l8 7q36 -44 36 -102q0 -57 -35 -102zM568 243q-5 5 -8 7q43 53 43 121t-43 121l8 7q45 -56 45 -128t-45 -128zM604 211q-3 2 -8 7q55 66 55 153
q0 89 -55 153l8 7q57 -68 57 -160t-57 -160zM649 171q-1 1 -3.5 3t-3.5 3q69 85 69 194q0 110 -70 193l8 7q72 -86 72 -200t-72 -200zM706 120q-3 3 -8 7q88 106 88 244t-88 244l8 7q90 -108 90 -251q0 -142 -90 -251zM183 170q-72 88 -72 201t71 200q1 -1 3.5 -3t4.5 -4
q-69 -83 -69 -193q0 -111 69 -194zM334 306q-21 29 -21 65t21 65q3 -2 8 -7q-19 -25 -19 -58q0 -32 19 -57zM364 333q-12 17 -12 38t12 38l7 -7q-9 -16 -9 -31t9 -31zM395 403l-5 6q10 9 26 9t26 -9l-5 -6q-10 7 -21 7q-13 0 -21 -7zM384 416l-7 7q17 14 39 14q21 0 38 -14
q-4 -4 -6 -7q-14 12 -32 12q-17 0 -32 -12zM371 430l-7 8q22 19 52 19t52 -19l-7 -8q-19 17 -45 17t-45 -17zM295 516l-7 8q54 48 128 48t128 -49l-2 -1l-2 -4l-2 -2q-52 46 -122 46t-121 -46zM416 240q-48 0 -83 30l7 8q35 -28 76 -28q42 0 75 28l7 -7q-36 -31 -82 -31z
M416 285q-29 0 -53 19l7 8q22 -17 46 -17q25 0 45 17l7 -8q-22 -19 -52 -19zM416 305q-21 0 -40 14l7 7q17 -12 33 -12q17 0 32 12l7 -7q-17 -14 -39 -14zM341 464l-7 7q36 31 82 31q47 0 82 -30l-7 -8q-33 28 -75 28t-75 -28zM320 487l-7 8q44 38 103 38q58 0 102 -39
l-6 -7q-41 36 -96 36q-53 0 -96 -36zM610 597q-81 75 -194 75q-110 0 -194 -74l-7 7q87 77 201 77t201 -77zM172 654l-7 8q107 97 251 97t252 -97l-7 -8q-105 95 -245 95q-139 0 -244 -95zM516 290l-7 7q25 33 25 74t-26 75l8 7q28 -36 28 -82q0 -47 -28 -81z" />
    <glyph glyph-name="registered" unicode="&#xae;" horiz-adv-x="832" 
d="M414 -12q-181 0 -275.5 104t-94.5 279t94.5 279t275.5 104t276.5 -104t95.5 -279t-95.5 -279t-276.5 -104zM414 25q167 0 251 93.5t84 252.5t-84 252.5t-251 93.5q-166 0 -249 -93t-83 -253t83 -253t249 -93zM557 122l-119 205h-148v-205h-52v493h212q89 0 126.5 -34.5
t37.5 -108.5q0 -65 -29 -100t-94 -43l122 -207h-56zM290 374h160q58 0 85 21.5t27 75.5q0 53 -26.5 74.5t-86.5 21.5h-159v-193z" />
    <glyph glyph-name="macron" unicode="&#xaf;" 
d="M115 606v65h360v-65h-360z" />
    <glyph glyph-name="macron" unicode="&#x2c9;" 
d="M115 606v65h360v-65h-360z" />
    <glyph glyph-name="degree" unicode="&#xb0;" horiz-adv-x="569" 
d="M284 279q-111 0 -164 63.5t-53 173.5q0 109 53 173t164 64t164.5 -64t53.5 -173q0 -110 -53.5 -173.5t-164.5 -63.5zM284 340q154 0 154 175q0 174 -154 174q-153 0 -153 -174q0 -175 153 -175z" />
    <glyph glyph-name="plusminus" unicode="&#xb1;" horiz-adv-x="981" 
d="M452 0v483h-242v-483h-75v483h-104v69h104v51q0 84 36 128.5t128 44.5h60v-67h-52q-55 0 -76 -27.5t-21 -78.5v-51h242v51q0 84 36 128.5t128 44.5h61v-67h-53q-54 0 -75 -27.5t-21 -78.5v-51h149v-69h-149v-483h-76zM884 -1q-65 0 -89.5 30t-24.5 103v644h75v-636
q0 -43 11.5 -58t51.5 -15h24v-66q-14 -2 -48 -2z" />
    <glyph glyph-name="twosuperior" unicode="&#xb2;" horiz-adv-x="441" 
d="M64 289v46l143 142q59 58 75.5 83.5t16.5 65.5q0 35 -22 51.5t-71 16.5q-68 0 -118 -25l-27 47q60 31 151 31q76 0 112 -27.5t36 -88.5q0 -50 -22.5 -85.5t-85.5 -97.5l-107 -108h220v-51h-301z" />
    <glyph glyph-name="threesuperior" unicode="&#xb3;" horiz-adv-x="461" 
d="M223 283q-95 0 -170 42l31 46q62 -36 134 -36q58 0 83 19t25 71q0 46 -24.5 66t-93.5 20h-64v49h62q60 0 83 15t23 55q0 35 -22 49.5t-73 14.5q-71 0 -124 -31l-30 46q64 39 161 39q79 0 114.5 -25.5t35.5 -81.5q0 -81 -64 -102q77 -18 77 -120q0 -75 -39 -105.5
t-125 -30.5z" />
    <glyph glyph-name="acute" unicode="&#xb4;" 
d="M218 610l151 156h93l-172 -156h-72z" />
    <glyph glyph-name="mu" unicode="&#xb5;" horiz-adv-x="618" 
d="M76 -165v717h76v-327q0 -26 0.5 -38.5t3 -34t8.5 -31.5t17.5 -24.5t28.5 -21t43 -11.5t60 -5q26 0 47.5 3t37 7t27.5 13.5t19.5 15.5t12.5 21.5t7.5 23t4 27.5t1.5 28v31v323h75v-322q0 -51 -3.5 -83.5t-16.5 -65.5t-37.5 -50.5t-66.5 -29t-104 -11.5q-130 0 -165 54
v-209h-76z" />
    <glyph glyph-name="mu" unicode="&#x3bc;" horiz-adv-x="618" 
d="M76 -165v717h76v-327q0 -26 0.5 -38.5t3 -34t8.5 -31.5t17.5 -24.5t28.5 -21t43 -11.5t60 -5q26 0 47.5 3t37 7t27.5 13.5t19.5 15.5t12.5 21.5t7.5 23t4 27.5t1.5 28v31v323h75v-322q0 -51 -3.5 -83.5t-16.5 -65.5t-37.5 -50.5t-66.5 -29t-104 -11.5q-130 0 -165 54
v-209h-76z" />
    <glyph glyph-name="paragraph" unicode="&#xb6;" horiz-adv-x="619" 
d="M257 0v293q-110 9 -156.5 64t-46.5 163q0 116 56.5 168.5t193.5 52.5h221v-741h-72v291h-124v-291h-72zM300 356h153v315h-150q-95 0 -134 -33.5t-39 -120.5q0 -88 39.5 -124.5t130.5 -36.5z" />
    <glyph glyph-name="periodcentered" unicode="&#xb7;" horiz-adv-x="239" 
d="M69 274v113h100v-113h-100z" />
    <glyph glyph-name="periodcentered" unicode="&#x2219;" horiz-adv-x="239" 
d="M69 274v113h100v-113h-100z" />
    <glyph glyph-name="cedilla" unicode="&#xb8;" 
d="M303 -225q-65 0 -116 29l23 42q43 -23 90 -23q46 0 62.5 14t16.5 39q0 28 -20 38t-74 7l-22 16l14 70h49l-9 -52q54 4 85.5 -13t31.5 -71q0 -96 -131 -96z" />
    <glyph glyph-name="onesuperior" unicode="&#xb9;" horiz-adv-x="328" 
d="M152 289v397h-90v55h151v-452h-61z" />
    <glyph glyph-name="ordmasculine" unicode="&#xba;" horiz-adv-x="592" 
d="M296 288q-215 0 -215 233q0 232 215 232t215 -232q0 -233 -215 -233zM296 347q150 0 150 173q0 171 -150 171t-150 -171q0 -173 150 -173zM108 149v60h376v-60h-376z" />
    <glyph glyph-name="guillemotright" unicode="&#xbb;" horiz-adv-x="677" 
d="M121 0l146 276l-146 276h67l151 -276l-151 -276h-67zM363 0l146 276l-146 276h69l151 -276l-151 -276h-69z" />
    <glyph glyph-name="onequarter" unicode="&#xbc;" horiz-adv-x="872" 
d="M695 0v106h-222v48l202 300h68l-200 -296h152l11 123h49v-123h75v-52h-75v-106h-60zM146 287v397h-90v57h153v-454h-63zM177 0l413 741h69l-413 -741h-69z" />
    <glyph glyph-name="onehalf" unicode="&#xbd;" horiz-adv-x="940" 
d="M562 0v48l143 141q61 61 77 85t16 62q0 35 -22 51.5t-71 16.5q-66 0 -118 -26l-28 50q65 31 152 31q76 0 111.5 -27.5t35.5 -89.5q0 -51 -21.5 -85t-85.5 -98l-105 -106h211v-53h-295zM146 287v397h-90v57h153v-454h-63zM177 0l413 741h69l-413 -741h-69z" />
    <glyph glyph-name="threequarters" unicode="&#xbe;" horiz-adv-x="966" 
d="M208 286q-94 0 -170 43l33 48q64 -36 132 -36q59 0 83 18.5t24 69.5q0 46 -24 65t-93 19h-63v53h61q61 0 84 14.5t23 53.5q0 35 -22.5 49t-73.5 14q-71 0 -123 -32l-31 48q64 40 161 40q79 0 114.5 -25.5t35.5 -82.5q0 -78 -65 -102q78 -19 78 -120q0 -75 -39 -106
t-125 -31zM789 0v106h-221v48l201 300h69l-201 -296h153l11 123h49v-123h74v-52h-74v-106h-61zM272 0l413 741h69l-414 -741h-68z" />
    <glyph glyph-name="questiondown" unicode="&#xbf;" horiz-adv-x="664" 
d="M323 -7q-136 0 -188.5 42.5t-52.5 134.5q0 69 32.5 108.5t106.5 80.5q68 38 84 71t9 119h75q11 -98 -11 -144.5t-99 -89.5q-72 -41 -95.5 -66.5t-23.5 -73.5q0 -57 33 -83.5t135 -26.5q121 0 217 51l33 -66q-106 -57 -255 -57zM302 644v102h100v-102h-100z" />
    <glyph glyph-name="Agrave" unicode="&#xc0;" horiz-adv-x="726" 
d="M25 0l297 746h79l297 -746h-80l-68 171h-380l-67 -171h-78zM197 243h325l-162 408zM366 785l-172 156h93l151 -156h-72z" />
    <glyph glyph-name="Aacute" unicode="&#xc1;" horiz-adv-x="726" 
d="M25 0l297 746h79l297 -746h-80l-68 171h-380l-67 -171h-78zM197 243h325l-162 408zM284 785l151 156h93l-172 -156h-72z" />
    <glyph glyph-name="Acircumflex" unicode="&#xc2;" horiz-adv-x="726" 
d="M25 0l297 746h79l297 -746h-80l-68 171h-380l-67 -171h-78zM197 243h325l-162 408zM166 785l152 156h85l152 -156h-76l-120 107l-118 -107h-75z" />
    <glyph glyph-name="Atilde" unicode="&#xc3;" horiz-adv-x="726" 
d="M25 0l297 746h79l297 -746h-80l-68 171h-380l-67 -171h-78zM197 243h325l-162 408zM217 788l-48 37q60 74 122 74q36 0 76 -24t63 -24q31 0 78 54l46 -37q-66 -81 -123 -81q-31 0 -73.5 24.5t-65.5 24.5q-39 0 -75 -48z" />
    <glyph glyph-name="Adieresis" unicode="&#xc4;" horiz-adv-x="726" 
d="M25 0l297 746h79l297 -746h-80l-68 171h-380l-67 -171h-78zM197 243h325l-162 408zM221 787v102h70v-102h-70zM432 787v102h69v-102h-69z" />
    <glyph glyph-name="Aring" unicode="&#xc5;" horiz-adv-x="726" 
d="M26 0l280 704q-63 26 -63 112q0 54 29.5 88t89.5 34q58 0 89 -34t31 -88q0 -84 -64 -112l281 -704h-79l-68 170h-382l-66 -170h-78zM198 242h326l-163 409zM362 738q75 0 75 78q0 35 -18.5 56.5t-56.5 21.5t-56.5 -21.5t-18.5 -56.5q0 -78 75 -78z" />
    <glyph glyph-name="AE" unicode="&#xc6;" horiz-adv-x="1070" 
d="M20 0l466 741h523v-75h-412v-245h402v-72h-402v-277h416v-72h-491v168h-317l-107 -168h-78zM245 236h277v434z" />
    <glyph glyph-name="Ccedilla" unicode="&#xc7;" horiz-adv-x="721" 
d="M368 -225q-65 0 -116 29l23 42q43 -23 90 -23q46 0 62.5 14t16.5 39q0 28 -20 38t-74 7l-22 16l11 56q-295 34 -295 378q0 191 95 286.5t274 95.5q161 0 259 -93l-56 -56q-82 74 -204 74q-289 0 -289 -308q0 -307 290 -307q76 0 123 20t86 56l55 -53q-99 -97 -268 -97
h-21l-6 -34q54 4 85.5 -13t31.5 -71q0 -96 -131 -96z" />
    <glyph glyph-name="Egrave" unicode="&#xc8;" horiz-adv-x="639" 
d="M87 0v741h490v-75h-411v-245h401v-74h-401v-275h415v-72h-494zM323 785l-172 156h93l151 -156h-72z" />
    <glyph glyph-name="Eacute" unicode="&#xc9;" horiz-adv-x="639" 
d="M241 785l151 156h93l-172 -156h-72zM87 0v741h490v-75h-411v-245h401v-74h-401v-275h415v-72h-494z" />
    <glyph glyph-name="Ecircumflex" unicode="&#xca;" horiz-adv-x="639" 
d="M123 785l152 156h85l152 -156h-76l-120 107l-118 -107h-75zM87 0v741h490v-75h-411v-245h401v-74h-401v-275h415v-72h-494z" />
    <glyph glyph-name="Edieresis" unicode="&#xcb;" horiz-adv-x="639" 
d="M178 787v102h70v-102h-70zM389 787v102h69v-102h-69zM87 0v741h490v-75h-411v-245h401v-74h-401v-275h415v-72h-494z" />
    <glyph glyph-name="Igrave" unicode="&#xcc;" horiz-adv-x="267" 
d="M99 785l-153 156h95l131 -156h-73zM95 0v741h77v-741h-77z" />
    <glyph glyph-name="Iacute" unicode="&#xcd;" horiz-adv-x="267" 
d="M95 785l130 156h95l-152 -156h-73zM95 0v741h77v-741h-77z" />
    <glyph glyph-name="Icircumflex" unicode="&#xce;" horiz-adv-x="267" 
d="M-37 785l129 156h82l128 -156h-75l-95 109l-95 -109h-74zM95 0v741h77v-741h-77z" />
    <glyph glyph-name="Idieresis" unicode="&#xcf;" horiz-adv-x="267" 
d="M95 0v741h77v-741h-77zM-6 787v102h70v-102h-70zM205 787v102h69v-102h-69z" />
    <glyph glyph-name="Eth" unicode="&#xd0;" horiz-adv-x="752" 
d="M0 351v66h87v324h242q212 0 296 -79.5t84 -290.5q0 -206 -91 -288.5t-302 -82.5h-229v351h-87zM166 72h153q174 0 242.5 66.5t68.5 232.5q0 170 -62.5 233t-237.5 63h-164v-250h168v-66h-168v-279z" />
    <glyph glyph-name="Ntilde" unicode="&#xd1;" horiz-adv-x="779" 
d="M87 0v741h86l443 -611v611h76v-741h-72l-457 629v-629h-76zM244 788l-48 37q60 74 122 74q36 0 76 -24t63 -24q31 0 78 54l46 -37q-66 -81 -123 -81q-31 0 -73.5 24.5t-65.5 24.5q-39 0 -75 -48z" />
    <glyph glyph-name="Ograve" unicode="&#xd2;" horiz-adv-x="834" 
d="M416 -12q-372 0 -372 383q0 382 372 382q374 0 374 -382q0 -383 -374 -383zM416 61q295 0 295 309q0 308 -295 308q-293 0 -293 -308q0 -309 293 -309zM421 785l-172 156h93l151 -156h-72z" />
    <glyph glyph-name="Oacute" unicode="&#xd3;" horiz-adv-x="834" 
d="M339 785l151 156h93l-172 -156h-72zM416 -12q-372 0 -372 383q0 382 372 382q374 0 374 -382q0 -383 -374 -383zM416 61q295 0 295 309q0 308 -295 308q-293 0 -293 -308q0 -309 293 -309z" />
    <glyph glyph-name="Ocircumflex" unicode="&#xd4;" horiz-adv-x="834" 
d="M221 785l152 156h85l152 -156h-76l-120 107l-118 -107h-75zM416 -12q-372 0 -372 383q0 382 372 382q374 0 374 -382q0 -383 -374 -383zM416 61q295 0 295 309q0 308 -295 308q-293 0 -293 -308q0 -309 293 -309z" />
    <glyph glyph-name="Otilde" unicode="&#xd5;" horiz-adv-x="834" 
d="M416 -12q-372 0 -372 383q0 382 372 382q374 0 374 -382q0 -383 -374 -383zM416 61q295 0 295 309q0 308 -295 308q-293 0 -293 -308q0 -309 293 -309zM272 788l-48 37q60 74 122 74q36 0 76 -24t63 -24q31 0 78 54l46 -37q-66 -81 -123 -81q-31 0 -73.5 24.5t-65.5 24.5
q-39 0 -75 -48z" />
    <glyph glyph-name="Odieresis" unicode="&#xd6;" horiz-adv-x="834" 
d="M276 787v102h70v-102h-70zM487 787v102h69v-102h-69zM416 -12q-372 0 -372 383q0 382 372 382q374 0 374 -382q0 -383 -374 -383zM416 61q295 0 295 309q0 308 -295 308q-293 0 -293 -308q0 -309 293 -309z" />
    <glyph glyph-name="multiply" unicode="&#xd7;" horiz-adv-x="696" 
d="M188 146l-46 48l159 158l-159 159l47 49l159 -159l158 159l47 -49l-158 -159l158 -158l-47 -48l-158 159z" />
    <glyph glyph-name="Oslash" unicode="&#xd8;" horiz-adv-x="834" 
d="M416 -12q-94 0 -169 25l-30 -54h-76l46 82q-143 89 -143 330q0 196 92.5 289t279.5 93q89 0 158 -21l29 51h76l-44 -77q155 -87 155 -335q0 -197 -93 -290t-281 -93zM416 59q155 0 226 78t71 233q0 199 -118 270l-314 -561q54 -20 135 -20zM121 370q0 -192 106 -264
l313 558q-56 16 -124 16q-155 0 -225 -77.5t-70 -232.5z" />
    <glyph glyph-name="Ugrave" unicode="&#xd9;" horiz-adv-x="778" 
d="M388 -12q-76 0 -132.5 15.5t-89 40t-52 62.5t-26 75.5t-6.5 85.5v474h79v-465q0 -105 48 -160t179 -55q133 0 182.5 54.5t49.5 160.5v465h76v-474q0 -61 -12 -106.5t-43 -87t-95 -63.5t-158 -22zM393 785l-172 156h93l151 -156h-72z" />
    <glyph glyph-name="Uacute" unicode="&#xda;" horiz-adv-x="778" 
d="M311 785l151 156h93l-172 -156h-72zM388 -12q-76 0 -132.5 15.5t-89 40t-52 62.5t-26 75.5t-6.5 85.5v474h79v-465q0 -105 48 -160t179 -55q133 0 182.5 54.5t49.5 160.5v465h76v-474q0 -61 -12 -106.5t-43 -87t-95 -63.5t-158 -22z" />
    <glyph glyph-name="Ucircumflex" unicode="&#xdb;" horiz-adv-x="778" 
d="M193 785l152 156h85l152 -156h-76l-120 107l-118 -107h-75zM388 -12q-76 0 -132.5 15.5t-89 40t-52 62.5t-26 75.5t-6.5 85.5v474h79v-465q0 -105 48 -160t179 -55q133 0 182.5 54.5t49.5 160.5v465h76v-474q0 -61 -12 -106.5t-43 -87t-95 -63.5t-158 -22z" />
    <glyph glyph-name="Udieresis" unicode="&#xdc;" horiz-adv-x="778" 
d="M248 787v102h70v-102h-70zM459 787v102h69v-102h-69zM388 -12q-76 0 -132.5 15.5t-89 40t-52 62.5t-26 75.5t-6.5 85.5v474h79v-465q0 -105 48 -160t179 -55q133 0 182.5 54.5t49.5 160.5v465h76v-474q0 -61 -12 -106.5t-43 -87t-95 -63.5t-158 -22z" />
    <glyph glyph-name="Yacute" unicode="&#xdd;" horiz-adv-x="700" 
d="M311 0v288l-298 453h86l252 -382l254 382h81l-297 -452v-289h-78zM272 785l151 156h93l-172 -156h-72z" />
    <glyph glyph-name="Thorn" unicode="&#xde;" horiz-adv-x="706" 
d="M87 0v741h77v-122h248q137 0 193.5 -52.5t56.5 -169.5q0 -119 -57 -176t-194 -57h-247v-164h-77zM164 236h249q91 0 131 36.5t40 122.5q0 87 -39 120t-135 33h-246v-312z" />
    <glyph glyph-name="germandbls" unicode="&#xdf;" horiz-adv-x="648" 
d="M76 0v543q0 107 58 171.5t190 64.5q118 0 174 -47.5t56 -144.5q0 -140 -108 -177q84 -15 124.5 -62t40.5 -134q0 -54 -11 -90t-40.5 -66t-86.5 -44t-143 -14h-65v69h63q53 0 91.5 7.5t60.5 20t35 33t17 40.5t4 48q0 78 -48 113t-171 35v64q162 0 162 140q0 68 -37 100.5
t-119 32.5q-172 0 -172 -163v-540h-75z" />
    <glyph glyph-name="agrave" unicode="&#xe0;" horiz-adv-x="620" 
d="M238 -10q-108 0 -151 43t-43 121q0 117 78.5 160.5t289.5 43.5h33q-1 38 -6.5 61.5t-21 41.5t-45 25.5t-76.5 7.5q-92 0 -165 -48l-40 59q33 23 90.5 41.5t120.5 18.5q70 0 112.5 -12t65.5 -41t30.5 -67.5t7.5 -102.5v-208q0 -45 9 -56t48 -11v-66q-5 -2 -30 -2
q-46 0 -64.5 15.5t-25.5 53.5q-26 -40 -76.5 -59t-140.5 -19zM249 55q104 0 150 46.5t46 147.5v40h-29q-123 0 -185.5 -11t-88 -38t-25.5 -81q0 -52 29.5 -78t102.5 -26zM316 610l-172 156h93l151 -156h-72z" />
    <glyph glyph-name="aacute" unicode="&#xe1;" horiz-adv-x="620" 
d="M238 -10q-108 0 -151 43t-43 121q0 117 78.5 160.5t289.5 43.5h33q-1 38 -6.5 61.5t-21 41.5t-45 25.5t-76.5 7.5q-92 0 -165 -48l-40 59q33 23 90.5 41.5t120.5 18.5q70 0 112.5 -12t65.5 -41t30.5 -67.5t7.5 -102.5v-208q0 -45 9 -56t48 -11v-66q-5 -2 -30 -2
q-46 0 -64.5 15.5t-25.5 53.5q-26 -40 -76.5 -59t-140.5 -19zM249 55q104 0 150 46.5t46 147.5v40h-29q-123 0 -185.5 -11t-88 -38t-25.5 -81q0 -52 29.5 -78t102.5 -26zM234 610l151 156h93l-172 -156h-72z" />
    <glyph glyph-name="acircumflex" unicode="&#xe2;" horiz-adv-x="620" 
d="M238 -10q-108 0 -151 43t-43 121q0 117 78.5 160.5t289.5 43.5h33q-1 38 -6.5 61.5t-21 41.5t-45 25.5t-76.5 7.5q-92 0 -165 -48l-40 59q33 23 90.5 41.5t120.5 18.5q70 0 112.5 -12t65.5 -41t30.5 -67.5t7.5 -102.5v-208q0 -45 9 -56t48 -11v-66q-5 -2 -30 -2
q-46 0 -64.5 15.5t-25.5 53.5q-26 -40 -76.5 -59t-140.5 -19zM249 55q104 0 150 46.5t46 147.5v40h-29q-123 0 -185.5 -11t-88 -38t-25.5 -81q0 -52 29.5 -78t102.5 -26zM116 610l152 156h85l152 -156h-76l-120 107l-118 -107h-75z" />
    <glyph glyph-name="atilde" unicode="&#xe3;" horiz-adv-x="620" 
d="M238 -10q-108 0 -151 43t-43 121q0 117 78.5 160.5t289.5 43.5h33q-1 38 -6.5 61.5t-21 41.5t-45 25.5t-76.5 7.5q-92 0 -165 -48l-40 59q33 23 90.5 41.5t120.5 18.5q70 0 112.5 -12t65.5 -41t30.5 -67.5t7.5 -102.5v-208q0 -45 9 -56t48 -11v-66q-5 -2 -30 -2
q-46 0 -64.5 15.5t-25.5 53.5q-26 -40 -76.5 -59t-140.5 -19zM249 55q104 0 150 46.5t46 147.5v40h-29q-123 0 -185.5 -11t-88 -38t-25.5 -81q0 -52 29.5 -78t102.5 -26zM167 613l-48 37q60 74 122 74q36 0 76 -24t63 -24q31 0 78 54l46 -37q-66 -81 -123 -81
q-31 0 -73.5 24.5t-65.5 24.5q-39 0 -75 -48z" />
    <glyph glyph-name="adieresis" unicode="&#xe4;" horiz-adv-x="620" 
d="M238 -10q-108 0 -151 43t-43 121q0 117 78.5 160.5t289.5 43.5h33q-1 38 -6.5 61.5t-21 41.5t-45 25.5t-76.5 7.5q-92 0 -165 -48l-40 59q33 23 90.5 41.5t120.5 18.5q70 0 112.5 -12t65.5 -41t30.5 -67.5t7.5 -102.5v-208q0 -45 9 -56t48 -11v-66q-5 -2 -30 -2
q-46 0 -64.5 15.5t-25.5 53.5q-26 -40 -76.5 -59t-140.5 -19zM249 55q104 0 150 46.5t46 147.5v40h-29q-123 0 -185.5 -11t-88 -38t-25.5 -81q0 -52 29.5 -78t102.5 -26zM171 612v102h70v-102h-70zM382 612v102h69v-102h-69z" />
    <glyph glyph-name="aring" unicode="&#xe5;" horiz-adv-x="620" 
d="M238 -10q-108 0 -151 43t-43 121q0 117 78.5 160.5t289.5 43.5h33q-1 38 -6.5 61.5t-21 41.5t-45 25.5t-76.5 7.5q-92 0 -165 -48l-40 59q33 23 90.5 41.5t120.5 18.5q70 0 112.5 -12t65.5 -41t30.5 -67.5t7.5 -102.5v-208q0 -45 9 -56t48 -11v-66q-5 -2 -30 -2
q-46 0 -64.5 15.5t-25.5 53.5q-26 -40 -76.5 -59t-140.5 -19zM249 55q104 0 150 46.5t46 147.5v40h-29q-123 0 -185.5 -11t-88 -38t-25.5 -81q0 -52 29.5 -78t102.5 -26zM311 599q-60 0 -90 33.5t-30 89.5t30 90t90 34q58 0 88.5 -34.5t30.5 -89.5t-30.5 -89t-88.5 -34z
M311 644q37 0 55.5 21.5t18.5 56.5t-18.5 56.5t-55.5 21.5q-75 0 -75 -78t75 -78z" />
    <glyph glyph-name="ae" unicode="&#xe6;" horiz-adv-x="985" 
d="M707 -11q-175 0 -229 110q-31 -62 -87.5 -85.5t-151.5 -23.5q-99 0 -147 39t-48 125q0 117 78.5 160.5t289.5 43.5h33q-1 38 -6.5 61.5t-21 41.5t-45 25.5t-76.5 7.5q-92 0 -167 -47l-38 58q33 23 90.5 41.5t120.5 18.5q85 0 129 -21.5t61 -66.5q59 88 211 88q47 0 84 -9
t61 -25t41 -38.5t24.5 -50t12.5 -59t4.5 -64.5t-0.5 -68h-416q3 -97 44 -146.5t149 -49.5q62 0 100 14t77 42l41 -53q-46 -35 -95.5 -52t-122.5 -17zM250 55q103 0 149 46.5t46 147.5v40h-29q-123 0 -185.5 -11t-88 -38t-25.5 -81q0 -52 29.5 -78t103.5 -26zM702 497
q-98 0 -139 -45t-48 -132h343q-1 36 -3.5 57t-11.5 47t-25 39.5t-45 23.5t-71 10z" />
    <glyph glyph-name="ccedilla" unicode="&#xe7;" horiz-adv-x="563" 
d="M290 -225q-65 0 -116 29l23 42q43 -23 90 -23q46 0 62.5 14t16.5 39q0 28 -20 38t-74 7l-22 16l11 56q-117 13 -164.5 84t-47.5 200q0 142 59 215t207 73q126 0 199 -79l-55 -52q-58 58 -144 58q-104 0 -147 -54t-43 -163t42.5 -163t147.5 -54q84 0 148 58l51 -48
q-44 -40 -89.5 -59t-111.5 -19h-3l-6 -35q54 4 85.5 -13t31.5 -71q0 -96 -131 -96z" />
    <glyph glyph-name="egrave" unicode="&#xe8;" horiz-adv-x="593" 
d="M314 -11q-80 0 -134.5 21.5t-82 63t-38 89.5t-10.5 114q0 65 11.5 113.5t39 90t80.5 63t131 21.5q46 0 82.5 -9.5t60 -24t40.5 -40t25.5 -49t13 -59.5t5.5 -63t0 -69h-416q3 -97 43.5 -146.5t148.5 -49.5q62 0 100.5 14t77.5 42l41 -53q-90 -69 -219 -69zM309 497
q-98 0 -138.5 -45t-47.5 -132h343q-2 37 -4.5 57t-11.5 46.5t-24.5 40t-45 23.5t-71.5 10zM300 610l-172 156h93l151 -156h-72z" />
    <glyph glyph-name="eacute" unicode="&#xe9;" horiz-adv-x="593" 
d="M218 610l151 156h93l-172 -156h-72zM314 -11q-80 0 -134.5 21.5t-82 63t-38 89.5t-10.5 114q0 65 11.5 113.5t39 90t80.5 63t131 21.5q46 0 82.5 -9.5t60 -24t40.5 -40t25.5 -49t13 -59.5t5.5 -63t0 -69h-416q3 -97 43.5 -146.5t148.5 -49.5q62 0 100.5 14t77.5 42
l41 -53q-90 -69 -219 -69zM309 497q-98 0 -138.5 -45t-47.5 -132h343q-2 37 -4.5 57t-11.5 46.5t-24.5 40t-45 23.5t-71.5 10z" />
    <glyph glyph-name="ecircumflex" unicode="&#xea;" horiz-adv-x="593" 
d="M100 610l152 156h85l152 -156h-76l-120 107l-118 -107h-75zM314 -11q-80 0 -134.5 21.5t-82 63t-38 89.5t-10.5 114q0 65 11.5 113.5t39 90t80.5 63t131 21.5q46 0 82.5 -9.5t60 -24t40.5 -40t25.5 -49t13 -59.5t5.5 -63t0 -69h-416q3 -97 43.5 -146.5t148.5 -49.5
q62 0 100.5 14t77.5 42l41 -53q-90 -69 -219 -69zM309 497q-98 0 -138.5 -45t-47.5 -132h343q-2 37 -4.5 57t-11.5 46.5t-24.5 40t-45 23.5t-71.5 10z" />
    <glyph glyph-name="edieresis" unicode="&#xeb;" horiz-adv-x="593" 
d="M155 612v102h70v-102h-70zM366 612v102h69v-102h-69zM314 -11q-80 0 -134.5 21.5t-82 63t-38 89.5t-10.5 114q0 65 11.5 113.5t39 90t80.5 63t131 21.5q46 0 82.5 -9.5t60 -24t40.5 -40t25.5 -49t13 -59.5t5.5 -63t0 -69h-416q3 -97 43.5 -146.5t148.5 -49.5
q62 0 100.5 14t77.5 42l41 -53q-90 -69 -219 -69zM309 497q-98 0 -138.5 -45t-47.5 -132h343q-2 37 -4.5 57t-11.5 46.5t-24.5 40t-45 23.5t-71.5 10z" />
    <glyph glyph-name="igrave" unicode="&#xec;" horiz-adv-x="238" 
d="M85 610l-135 155h92l114 -155h-71zM81 0v552h75v-552h-75z" />
    <glyph glyph-name="iacute" unicode="&#xed;" horiz-adv-x="238" 
d="M83 610l113 155h93l-135 -155h-71zM81 0v552h75v-552h-75z" />
    <glyph glyph-name="icircumflex" unicode="&#xee;" horiz-adv-x="238" 
d="M-39 610l118 155h79l118 -155h-74l-84 108l-86 -108h-71zM81 0v552h75v-552h-75z" />
    <glyph glyph-name="idieresis" unicode="&#xef;" horiz-adv-x="238" 
d="M-7 624v101h64v-101h-64zM181 624v101h64v-101h-64zM81 0v552h75v-552h-75z" />
    <glyph glyph-name="eth" unicode="&#xf0;" horiz-adv-x="631" 
d="M301 598v56l81 23q-33 37 -81 76l67 32q57 -45 92 -86l138 38v-56l-103 -29q87 -135 87 -366q0 -154 -64.5 -225.5t-203.5 -71.5t-202 70.5t-63 209.5q0 137 58 208t190 71q138 0 191 -65q-19 79 -69 148zM314 58q102 0 146.5 52.5t44.5 159.5q0 108 -44.5 160t-146.5 52
q-100 0 -144.5 -52t-44.5 -160q0 -107 44.5 -159.5t144.5 -52.5z" />
    <glyph glyph-name="ntilde" unicode="&#xf1;" horiz-adv-x="620" 
d="M76 0v548l60 4l7 -58q45 71 205 71q65 0 106 -15.5t60.5 -48.5t26 -69.5t6.5 -94.5v-337h-76v324q0 43 -4 68t-17.5 50.5t-44 36.5t-79.5 11q-102 0 -138 -46t-36 -134v-310h-76zM165 613l-48 37q60 74 122 74q36 0 76 -24t63 -24q31 0 78 54l46 -37q-66 -81 -123 -81
q-31 0 -73.5 24.5t-65.5 24.5q-39 0 -75 -48z" />
    <glyph glyph-name="ograve" unicode="&#xf2;" horiz-adv-x="631" 
d="M315 -11q-140 0 -203 71t-63 217t63 217t203 71t203.5 -71t63.5 -217t-63.5 -217t-203.5 -71zM315 58q101 0 145.5 54t44.5 163q0 110 -44.5 164t-145.5 54t-145.5 -54t-44.5 -164q0 -109 44.5 -163t145.5 -54zM319 610l-172 156h93l151 -156h-72z" />
    <glyph glyph-name="oacute" unicode="&#xf3;" horiz-adv-x="631" 
d="M237 610l151 156h93l-172 -156h-72zM315 -11q-140 0 -203 71t-63 217t63 217t203 71t203.5 -71t63.5 -217t-63.5 -217t-203.5 -71zM315 58q101 0 145.5 54t44.5 163q0 110 -44.5 164t-145.5 54t-145.5 -54t-44.5 -164q0 -109 44.5 -163t145.5 -54z" />
    <glyph glyph-name="ocircumflex" unicode="&#xf4;" horiz-adv-x="631" 
d="M119 610l152 156h85l152 -156h-76l-120 107l-118 -107h-75zM315 -11q-140 0 -203 71t-63 217t63 217t203 71t203.5 -71t63.5 -217t-63.5 -217t-203.5 -71zM315 58q101 0 145.5 54t44.5 163q0 110 -44.5 164t-145.5 54t-145.5 -54t-44.5 -164q0 -109 44.5 -163t145.5 -54z
" />
    <glyph glyph-name="otilde" unicode="&#xf5;" horiz-adv-x="631" 
d="M315 -11q-140 0 -203 71t-63 217t63 217t203 71t203.5 -71t63.5 -217t-63.5 -217t-203.5 -71zM315 58q101 0 145.5 54t44.5 163q0 110 -44.5 164t-145.5 54t-145.5 -54t-44.5 -164q0 -109 44.5 -163t145.5 -54zM170 613l-48 37q60 74 122 74q36 0 76 -24t63 -24
q31 0 78 54l46 -37q-66 -81 -123 -81q-31 0 -73.5 24.5t-65.5 24.5q-39 0 -75 -48z" />
    <glyph glyph-name="odieresis" unicode="&#xf6;" horiz-adv-x="631" 
d="M174 612v102h70v-102h-70zM385 612v102h69v-102h-69zM315 -11q-140 0 -203 71t-63 217t63 217t203 71t203.5 -71t63.5 -217t-63.5 -217t-203.5 -71zM315 58q101 0 145.5 54t44.5 163q0 110 -44.5 164t-145.5 54t-145.5 -54t-44.5 -164q0 -109 44.5 -163t145.5 -54z" />
    <glyph glyph-name="divide" unicode="&#xf7;" horiz-adv-x="696" 
d="M302 108v93h92v-93h-92zM106 317v72h483v-72h-483zM302 505v93h92v-93h-92z" />
    <glyph glyph-name="oslash" unicode="&#xf8;" horiz-adv-x="631" 
d="M315 -11q-70 0 -121 17l-29 -48h-71l45 76q-90 66 -90 243q0 146 62 217t204 71q68 0 122 -19l29 49h70l-44 -76q90 -67 90 -242q0 -146 -62.5 -217t-204.5 -71zM315 56q102 0 147 54.5t45 164.5q0 126 -58 178l-222 -383q37 -14 88 -14zM124 275q0 -127 56 -177l221 383
q-39 13 -86 13q-103 0 -147 -54t-44 -165z" />
    <glyph glyph-name="ugrave" unicode="&#xf9;" horiz-adv-x="614" 
d="M309 -10q-78 0 -126.5 15t-72 49.5t-30.5 72t-7 100.5v325h75v-327q0 -26 0.5 -38.5t3.5 -33.5t9 -32t17.5 -25t28.5 -20.5t42.5 -11.5t59.5 -5t59.5 5t42 11.5t28 21t17 25t8 33t3 34.5t0.5 40v323h74v-322q0 -51 -3.5 -83.5t-17 -65.5t-38 -50.5t-67.5 -29t-106 -11.5z
M311 610l-172 156h93l151 -156h-72z" />
    <glyph glyph-name="uacute" unicode="&#xfa;" horiz-adv-x="614" 
d="M229 610l151 156h93l-172 -156h-72zM309 -10q-78 0 -126.5 15t-72 49.5t-30.5 72t-7 100.5v325h75v-327q0 -26 0.5 -38.5t3.5 -33.5t9 -32t17.5 -25t28.5 -20.5t42.5 -11.5t59.5 -5t59.5 5t42 11.5t28 21t17 25t8 33t3 34.5t0.5 40v323h74v-322q0 -51 -3.5 -83.5
t-17 -65.5t-38 -50.5t-67.5 -29t-106 -11.5z" />
    <glyph glyph-name="ucircumflex" unicode="&#xfb;" horiz-adv-x="614" 
d="M111 610l152 156h85l152 -156h-76l-120 107l-118 -107h-75zM309 -10q-78 0 -126.5 15t-72 49.5t-30.5 72t-7 100.5v325h75v-327q0 -26 0.5 -38.5t3.5 -33.5t9 -32t17.5 -25t28.5 -20.5t42.5 -11.5t59.5 -5t59.5 5t42 11.5t28 21t17 25t8 33t3 34.5t0.5 40v323h74v-322
q0 -51 -3.5 -83.5t-17 -65.5t-38 -50.5t-67.5 -29t-106 -11.5z" />
    <glyph glyph-name="udieresis" unicode="&#xfc;" horiz-adv-x="614" 
d="M166 612v102h70v-102h-70zM377 612v102h69v-102h-69zM309 -10q-78 0 -126.5 15t-72 49.5t-30.5 72t-7 100.5v325h75v-327q0 -26 0.5 -38.5t3.5 -33.5t9 -32t17.5 -25t28.5 -20.5t42.5 -11.5t59.5 -5t59.5 5t42 11.5t28 21t17 25t8 33t3 34.5t0.5 40v323h74v-322
q0 -51 -3.5 -83.5t-17 -65.5t-38 -50.5t-67.5 -29t-106 -11.5z" />
    <glyph glyph-name="yacute" unicode="&#xfd;" horiz-adv-x="530" 
d="M126 -167q-38 0 -48 1v62h43q38 0 56.5 12.5t29.5 44.5l20 51l-216 548h80l176 -459l174 459h78l-238 -607q-23 -61 -57.5 -86.5t-97.5 -25.5zM189 610l151 156h93l-172 -156h-72z" />
    <glyph glyph-name="thorn" unicode="&#xfe;" horiz-adv-x="647" 
d="M76 -165v941h76v-286q43 75 210 75q131 0 183.5 -73.5t52.5 -214.5q0 -140 -53.5 -213.5t-185.5 -73.5q-89 0 -137 18t-70 57v-230h-76zM347 60q97 0 135.5 53.5t38.5 161.5q0 109 -38 163.5t-136 54.5q-106 0 -150.5 -48.5t-44.5 -169.5t44 -168t151 -47z" />
    <glyph glyph-name="ydieresis" unicode="&#xff;" horiz-adv-x="530" 
d="M126 -167q-38 0 -48 1v62h43q38 0 56.5 12.5t29.5 44.5l20 51l-216 548h80l176 -459l174 459h78l-238 -607q-23 -61 -57.5 -86.5t-97.5 -25.5zM126 612v102h70v-102h-70zM337 612v102h69v-102h-69z" />
    <glyph glyph-name="dotlessi" unicode="&#x131;" horiz-adv-x="238" 
d="M81 0v552h75v-552h-75z" />
    <glyph glyph-name="Lslash" unicode="&#x141;" horiz-adv-x="587" 
d="M0 306v68l87 48v319h79v-275l167 94v-68l-167 -94v-326h394v-72h-473v354z" />
    <glyph glyph-name="lslash" unicode="&#x142;" horiz-adv-x="353" 
d="M22 390v65l100 58v263h76v-219l112 65v-66l-112 -65v-353q0 -43 11.5 -58t51.5 -15h24v-64q-16 -2 -48 -2q-66 0 -90.5 30t-24.5 102v316z" />
    <glyph glyph-name="OE" unicode="&#x152;" horiz-adv-x="1260" 
d="M716 0v121q-84 -133 -300 -133q-187 0 -279.5 93t-92.5 290q0 196 92.5 289t279.5 93q216 0 300 -132v120h482v-75h-411v-245h401v-72h-401v-277h415v-72h-486zM416 61q154 0 224.5 77.5t70.5 231.5t-70.5 231t-224.5 77q-153 0 -223 -77t-70 -231q0 -155 70 -232
t223 -77z" />
    <glyph glyph-name="oe" unicode="&#x153;" horiz-adv-x="1048" 
d="M770 -11q-176 0 -229 111q-56 -111 -226 -111q-142 0 -204 71t-62 217t62 217t204 71q171 0 227 -113q52 113 225 113q47 0 84 -9t60.5 -25t40.5 -38.5t25 -50t13 -59t4.5 -64.5t-0.5 -68h-416q3 -97 43.5 -146.5t148.5 -49.5q62 0 100.5 14t77.5 42l42 -53
q-92 -69 -220 -69zM315 58q101 0 145.5 54t44.5 163q0 110 -44.5 164t-145.5 54t-145.5 -54t-44.5 -164q0 -109 44.5 -163t145.5 -54zM765 497q-99 0 -139.5 -45.5t-46.5 -132.5h343q-2 37 -4.5 57t-11.5 47t-25 40.5t-45 23.5t-71 10z" />
    <glyph glyph-name="Scaron" unicode="&#x160;" horiz-adv-x="703" 
d="M307 785l-152 156h76l120 -107l119 107h74l-152 -156h-85zM348 -10q-178 0 -307 85l40 60q119 -75 265 -75q115 0 168 34.5t53 110.5q0 19 -3.5 35t-13 28.5t-17.5 21.5t-27 17.5t-31 13t-39 10.5t-41.5 9t-48.5 9q-57 10 -90.5 18t-72 23t-58.5 35t-33.5 52.5
t-13.5 76.5q0 105 66.5 152t201.5 47q161 0 258 -66l-42 -64q-88 58 -216 58q-100 0 -145 -29.5t-45 -95.5q0 -28 10 -48t24.5 -33t44.5 -24t56.5 -16.5t73.5 -14.5q38 -7 59 -11t52 -11.5t49 -15.5t40 -19.5t34 -25.5t23.5 -32.5t16.5 -43t5 -53.5q0 -111 -72.5 -164.5
t-223.5 -53.5z" />
    <glyph glyph-name="scaron" unicode="&#x161;" horiz-adv-x="522" 
d="M218 610l-152 156h76l120 -107l119 107h74l-152 -156h-85zM260 -10q-135 0 -230 62l40 59q85 -55 194 -55q79 0 112.5 20.5t33.5 76.5q0 44 -29.5 61t-116.5 34q-45 9 -71.5 15.5t-56 19t-45 29t-25.5 42t-10 60.5q0 74 49 112.5t159 38.5q120 0 202 -48l-36 -62
q-73 40 -165 40q-74 0 -104 -20.5t-30 -60.5q0 -43 29 -61.5t108 -33.5q42 -8 63.5 -13.5t51 -14.5t44 -19.5t29.5 -26.5t21 -38t6 -51q0 -92 -52.5 -129t-170.5 -37z" />
    <glyph glyph-name="Ydieresis" unicode="&#x178;" horiz-adv-x="700" 
d="M311 0v288l-298 453h86l252 -382l254 382h81l-297 -452v-289h-78zM209 787v102h70v-102h-70zM420 787v102h69v-102h-69z" />
    <glyph glyph-name="Zcaron" unicode="&#x17d;" horiz-adv-x="665" 
d="M289 785l-152 156h76l120 -107l119 107h74l-152 -156h-85zM45 0v63l464 603h-447v75h544v-68l-462 -601h473v-72h-572z" />
    <glyph glyph-name="zcaron" unicode="&#x17e;" horiz-adv-x="502" 
d="M209 610l-152 156h76l120 -107l119 107h74l-152 -156h-85zM33 0v57l330 426h-313v69h410v-58l-330 -429h341v-65h-438z" />
    <glyph glyph-name="florin" unicode="&#x192;" horiz-adv-x="530" 
d="M88 382v69h120l28 131q8 40 16.5 63.5t27.5 48.5t52.5 36t84.5 11h32v-71h-28q-60 0 -81.5 -26.5t-32.5 -82.5l-24 -110h166v-69h-180l-116 -548h-76l116 548h-105z" />
    <glyph glyph-name="circumflex" unicode="&#x2c6;" 
d="M100 610l152 156h85l152 -156h-76l-120 107l-118 -107h-75z" />
    <glyph glyph-name="caron" unicode="&#x2c7;" 
d="M252 610l-152 156h76l120 -107l119 107h74l-152 -156h-85z" />
    <glyph glyph-name="breve" unicode="&#x2d8;" 
d="M295 600q-91 0 -132 39.5t-55 108.5l58 12q10 -47 38 -72t91 -25q62 0 90 25t39 72l59 -11q-16 -71 -57 -110t-131 -39z" />
    <glyph glyph-name="dotaccent" unicode="&#x2d9;" 
d="M257 609v107h76v-107h-76z" />
    <glyph glyph-name="ring" unicode="&#x2da;" 
d="M295 599q-60 0 -90 33.5t-30 89.5t30 90t90 34q58 0 88.5 -34.5t30.5 -89.5t-30.5 -89t-88.5 -34zM295 644q37 0 55.5 21.5t18.5 56.5t-18.5 56.5t-55.5 21.5q-75 0 -75 -78t75 -78z" />
    <glyph glyph-name="ogonek" unicode="&#x2db;" 
d="M302 -217q-70 0 -96.5 26.5t-26.5 73.5q0 39 28 71.5t64 53.5h78q-102 -58 -102 -116q0 -23 13.5 -37t51.5 -14q46 0 86 19l23 -52q-47 -25 -119 -25z" />
    <glyph glyph-name="tilde" unicode="&#x2dc;" 
d="M151 613l-48 37q60 74 122 74q36 0 76 -24t63 -24q31 0 78 54l46 -37q-66 -81 -123 -81q-31 0 -73.5 24.5t-65.5 24.5q-39 0 -75 -48z" />
    <glyph glyph-name="hungarumlaut" unicode="&#x2dd;" 
d="M110 610l126 155h90l-148 -155h-68zM337 610l126 155h89l-147 -155h-68z" />
    <glyph glyph-name="Delta" unicode="&#x394;" horiz-adv-x="609" 
d="M31 483v69h104v51q0 84 36 128.5t128 44.5h60v-67h-52q-55 0 -76 -27.5t-21 -78.5v-51h149v-69h-149v-483h-75v483h-104zM373 -167v63h7q46 1 59 18t13 68v570h76v-570q0 -86 -28.5 -117.5t-113.5 -31.5h-13zM452 625v108h76v-108h-76z" />
    <glyph glyph-name="Delta" unicode="&#x2206;" horiz-adv-x="609" 
d="M31 483v69h104v51q0 84 36 128.5t128 44.5h60v-67h-52q-55 0 -76 -27.5t-21 -78.5v-51h149v-69h-149v-483h-75v483h-104zM373 -167v63h7q46 1 59 18t13 68v570h76v-570q0 -86 -28.5 -117.5t-113.5 -31.5h-13zM452 625v108h76v-108h-76z" />
    <glyph glyph-name="Omega" unicode="&#x3a9;" horiz-adv-x="832" 
d="M126 120q-90 108 -90 251q0 142 90 250q3 -2 7 -6q-87 -106 -87 -244t88 -244zM228 211q-57 70 -57 160t56 160l3.5 -3.5t4.5 -3.5q-54 -67 -54 -153q0 -88 54 -153zM264 243q-45 56 -45 128t45 128q2 -1 4 -3.5t4 -3.5q-43 -53 -43 -121t43 -121q-2 -1 -4 -3.5t-4 -3.5z
M316 289q-28 36 -28 82q0 47 28 81q1 -1 2.5 -2t2.5 -2.5t2 -2.5q-25 -33 -25 -74t26 -75l-3.5 -3.5t-4.5 -3.5zM349 320q-16 22 -16 51t16 51q1 -1 4 -3.5t4 -3.5q-14 -20 -14 -44t14 -44q-3 -2 -8 -7zM378 346q-7 12 -7 25t7 25l6 -5q-5 -10 -5 -20t5 -20q-2 -2 -6 -5z
M416 60q-116 0 -201 77l7 7q84 -74 194 -74q111 0 193 74q1 -1 3.5 -4t3.5 -4q-86 -76 -200 -76zM416 324q-15 0 -27 9l6 6q11 -7 21 -7q13 0 21 7q2 -2 5 -6q-10 -9 -26 -9zM482 319q-3 4 -7 7q14 20 14 45t-14 44l7 7q17 -22 17 -51t-17 -52zM292 269q-35 45 -35 102
q0 58 36 102l7 -7q-33 -43 -33 -95t33 -95q-5 -5 -8 -7zM416 -17q-144 0 -252 97l7 8q105 -95 245 -95q139 0 244 94l2 -1l4 -4l1 -2q-107 -97 -251 -97zM416 121q-92 0 -161 61l7 8q65 -59 154 -59t153 59q1 -2 3.5 -4t3.5 -4q-67 -61 -160 -61zM416 170q-72 0 -129 49l7 7
q52 -46 122 -46t121 46q1 -2 3.5 -4.5l3.5 -3.5q-54 -48 -128 -48zM416 209q-57 0 -103 38l7 8q43 -36 96 -36t96 36q2 -2 6 -8q-45 -38 -102 -38zM416 265q-37 0 -66 24l7 8q25 -22 59 -22q33 0 58 22q1 -1 3.5 -4t3.5 -4q-29 -24 -65 -24zM358 445l-8 8q29 24 66 24
t66 -24l-8 -8q-25 22 -58 22t-58 -22zM570 552q-65 59 -154 59q-87 0 -153 -58l-7 7q69 61 160 61q92 0 161 -61q-2 -3 -7 -8zM454 346l-6 5q5 10 5 20t-5 20l6 5q7 -12 7 -25t-7 -25zM468 333q-5 5 -8 7q10 15 10 31t-10 31l8 7q12 -16 12 -38q0 -21 -12 -38zM498 306
q-3 2 -8 7q19 25 19 58t-19 58l7 7q22 -28 22 -65q0 -34 -21 -65zM540 269l-3.5 3.5t-4.5 3.5q33 43 33 95q0 53 -34 95l8 7q36 -44 36 -102q0 -57 -35 -102zM568 243q-5 5 -8 7q43 53 43 121t-43 121l8 7q45 -56 45 -128t-45 -128zM604 211q-3 2 -8 7q55 66 55 153
q0 89 -55 153l8 7q57 -68 57 -160t-57 -160zM649 171q-1 1 -3.5 3t-3.5 3q69 85 69 194q0 110 -70 193l8 7q72 -86 72 -200t-72 -200zM706 120q-3 3 -8 7q88 106 88 244t-88 244l8 7q90 -108 90 -251q0 -142 -90 -251zM183 170q-72 88 -72 201t71 200q1 -1 3.5 -3t4.5 -4
q-69 -83 -69 -193q0 -111 69 -194zM334 306q-21 29 -21 65t21 65q3 -2 8 -7q-19 -25 -19 -58q0 -32 19 -57zM364 333q-12 17 -12 38t12 38l7 -7q-9 -16 -9 -31t9 -31zM395 403l-5 6q10 9 26 9t26 -9l-5 -6q-10 7 -21 7q-13 0 -21 -7zM384 416l-7 7q17 14 39 14q21 0 38 -14
q-4 -4 -6 -7q-14 12 -32 12q-17 0 -32 -12zM371 430l-7 8q22 19 52 19t52 -19l-7 -8q-19 17 -45 17t-45 -17zM295 516l-7 8q54 48 128 48t128 -49l-2 -1l-2 -4l-2 -2q-52 46 -122 46t-121 -46zM416 240q-48 0 -83 30l7 8q35 -28 76 -28q42 0 75 28l7 -7q-36 -31 -82 -31z
M416 285q-29 0 -53 19l7 8q22 -17 46 -17q25 0 45 17l7 -8q-22 -19 -52 -19zM416 305q-21 0 -40 14l7 7q17 -12 33 -12q17 0 32 12l7 -7q-17 -14 -39 -14zM341 464l-7 7q36 31 82 31q47 0 82 -30l-7 -8q-33 28 -75 28t-75 -28zM320 487l-7 8q44 38 103 38q58 0 102 -39
l-6 -7q-41 36 -96 36q-53 0 -96 -36zM610 597q-81 75 -194 75q-110 0 -194 -74l-7 7q87 77 201 77t201 -77zM172 654l-7 8q107 97 251 97t252 -97l-7 -8q-105 95 -245 95q-139 0 -244 -95zM516 290l-7 7q25 33 25 74t-26 75l8 7q28 -36 28 -82q0 -47 -28 -81z" />
    <glyph glyph-name="Omega" unicode="&#x2126;" horiz-adv-x="832" 
d="M126 120q-90 108 -90 251q0 142 90 250q3 -2 7 -6q-87 -106 -87 -244t88 -244zM228 211q-57 70 -57 160t56 160l3.5 -3.5t4.5 -3.5q-54 -67 -54 -153q0 -88 54 -153zM264 243q-45 56 -45 128t45 128q2 -1 4 -3.5t4 -3.5q-43 -53 -43 -121t43 -121q-2 -1 -4 -3.5t-4 -3.5z
M316 289q-28 36 -28 82q0 47 28 81q1 -1 2.5 -2t2.5 -2.5t2 -2.5q-25 -33 -25 -74t26 -75l-3.5 -3.5t-4.5 -3.5zM349 320q-16 22 -16 51t16 51q1 -1 4 -3.5t4 -3.5q-14 -20 -14 -44t14 -44q-3 -2 -8 -7zM378 346q-7 12 -7 25t7 25l6 -5q-5 -10 -5 -20t5 -20q-2 -2 -6 -5z
M416 60q-116 0 -201 77l7 7q84 -74 194 -74q111 0 193 74q1 -1 3.5 -4t3.5 -4q-86 -76 -200 -76zM416 324q-15 0 -27 9l6 6q11 -7 21 -7q13 0 21 7q2 -2 5 -6q-10 -9 -26 -9zM482 319q-3 4 -7 7q14 20 14 45t-14 44l7 7q17 -22 17 -51t-17 -52zM292 269q-35 45 -35 102
q0 58 36 102l7 -7q-33 -43 -33 -95t33 -95q-5 -5 -8 -7zM416 -17q-144 0 -252 97l7 8q105 -95 245 -95q139 0 244 94l2 -1l4 -4l1 -2q-107 -97 -251 -97zM416 121q-92 0 -161 61l7 8q65 -59 154 -59t153 59q1 -2 3.5 -4t3.5 -4q-67 -61 -160 -61zM416 170q-72 0 -129 49l7 7
q52 -46 122 -46t121 46q1 -2 3.5 -4.5l3.5 -3.5q-54 -48 -128 -48zM416 209q-57 0 -103 38l7 8q43 -36 96 -36t96 36q2 -2 6 -8q-45 -38 -102 -38zM416 265q-37 0 -66 24l7 8q25 -22 59 -22q33 0 58 22q1 -1 3.5 -4t3.5 -4q-29 -24 -65 -24zM358 445l-8 8q29 24 66 24
t66 -24l-8 -8q-25 22 -58 22t-58 -22zM570 552q-65 59 -154 59q-87 0 -153 -58l-7 7q69 61 160 61q92 0 161 -61q-2 -3 -7 -8zM454 346l-6 5q5 10 5 20t-5 20l6 5q7 -12 7 -25t-7 -25zM468 333q-5 5 -8 7q10 15 10 31t-10 31l8 7q12 -16 12 -38q0 -21 -12 -38zM498 306
q-3 2 -8 7q19 25 19 58t-19 58l7 7q22 -28 22 -65q0 -34 -21 -65zM540 269l-3.5 3.5t-4.5 3.5q33 43 33 95q0 53 -34 95l8 7q36 -44 36 -102q0 -57 -35 -102zM568 243q-5 5 -8 7q43 53 43 121t-43 121l8 7q45 -56 45 -128t-45 -128zM604 211q-3 2 -8 7q55 66 55 153
q0 89 -55 153l8 7q57 -68 57 -160t-57 -160zM649 171q-1 1 -3.5 3t-3.5 3q69 85 69 194q0 110 -70 193l8 7q72 -86 72 -200t-72 -200zM706 120q-3 3 -8 7q88 106 88 244t-88 244l8 7q90 -108 90 -251q0 -142 -90 -251zM183 170q-72 88 -72 201t71 200q1 -1 3.5 -3t4.5 -4
q-69 -83 -69 -193q0 -111 69 -194zM334 306q-21 29 -21 65t21 65q3 -2 8 -7q-19 -25 -19 -58q0 -32 19 -57zM364 333q-12 17 -12 38t12 38l7 -7q-9 -16 -9 -31t9 -31zM395 403l-5 6q10 9 26 9t26 -9l-5 -6q-10 7 -21 7q-13 0 -21 -7zM384 416l-7 7q17 14 39 14q21 0 38 -14
q-4 -4 -6 -7q-14 12 -32 12q-17 0 -32 -12zM371 430l-7 8q22 19 52 19t52 -19l-7 -8q-19 17 -45 17t-45 -17zM295 516l-7 8q54 48 128 48t128 -49l-2 -1l-2 -4l-2 -2q-52 46 -122 46t-121 -46zM416 240q-48 0 -83 30l7 8q35 -28 76 -28q42 0 75 28l7 -7q-36 -31 -82 -31z
M416 285q-29 0 -53 19l7 8q22 -17 46 -17q25 0 45 17l7 -8q-22 -19 -52 -19zM416 305q-21 0 -40 14l7 7q17 -12 33 -12q17 0 32 12l7 -7q-17 -14 -39 -14zM341 464l-7 7q36 31 82 31q47 0 82 -30l-7 -8q-33 28 -75 28t-75 -28zM320 487l-7 8q44 38 103 38q58 0 102 -39
l-6 -7q-41 36 -96 36q-53 0 -96 -36zM610 597q-81 75 -194 75q-110 0 -194 -74l-7 7q87 77 201 77t201 -77zM172 654l-7 8q107 97 251 97t252 -97l-7 -8q-105 95 -245 95q-139 0 -244 -95zM516 290l-7 7q25 33 25 74t-26 75l8 7q28 -36 28 -82q0 -47 -28 -81z" />
    <glyph glyph-name="pi" unicode="&#x3c0;" horiz-adv-x="832" 
d="M414 -12q-181 0 -275.5 104t-94.5 279t94.5 279t275.5 104t276.5 -104t95.5 -279t-95.5 -279t-276.5 -104zM414 25q167 0 251 93.5t84 252.5t-84 252.5t-251 93.5q-166 0 -249 -93t-83 -253t83 -253t249 -93zM247 109v507h221q93 0 131.5 -35.5t38.5 -115.5t-39 -118.5
t-131 -38.5h-166v-199h-55zM302 358h168q59 0 86 24t27 81t-27 79.5t-89 22.5h-165v-207z" />
    <glyph glyph-name="endash" unicode="&#x2013;" horiz-adv-x="701" 
d="M52 272v71h597v-71h-597z" />
    <glyph glyph-name="emdash" unicode="&#x2014;" horiz-adv-x="921" 
d="M52 272v71h818v-71h-818z" />
    <glyph glyph-name="quoteleft" unicode="&#x2018;" horiz-adv-x="239" 
d="M69 506v88q0 64 16.5 94t67.5 56l22 -41q-33 -18 -44 -34.5t-11 -48.5h49v-114h-100z" />
    <glyph glyph-name="quoteright" unicode="&#x2019;" horiz-adv-x="239" 
d="M86 503l-22 41q33 18 44 34.5t11 47.5h-50v115h100v-87q0 -65 -16.5 -95.5t-66.5 -55.5z" />
    <glyph glyph-name="quotesinglbase" unicode="&#x201a;" horiz-adv-x="239" 
d="M86 -107l-22 41q33 18 44 34.5t11 48.5h-50v114h100v-88q0 -61 -16.5 -93t-66.5 -57z" />
    <glyph glyph-name="quotedblleft" unicode="&#x201c;" horiz-adv-x="418" 
d="M69 507v86q0 62 16.5 92.5t66.5 55.5l22 -41q-33 -17 -44 -33.5t-11 -47.5h49v-112h-99zM251 507v86q0 63 16.5 93t65.5 55l22 -41q-33 -17 -44 -33.5t-11 -47.5h49v-112h-98z" />
    <glyph glyph-name="quotedblright" unicode="&#x201d;" horiz-adv-x="418" 
d="M85 507l-21 40q33 18 44 34t11 48h-50v112h99v-86q0 -63 -16.5 -93t-66.5 -55zM266 507l-22 40q34 18 45 34t11 48h-49v112h98v-86q0 -63 -16.5 -93t-66.5 -55z" />
    <glyph glyph-name="quotedblbase" unicode="&#x201e;" horiz-adv-x="418" 
d="M85 -105l-21 40q33 17 44 33.5t11 48.5h-50v112h99v-86q0 -61 -16.5 -92.5t-66.5 -55.5zM266 -105l-22 40q33 17 44.5 33.5t11.5 48.5h-49v112h98v-86q0 -61 -17 -92.5t-66 -55.5z" />
    <glyph glyph-name="dagger" unicode="&#x2020;" horiz-adv-x="541" 
d="M233 -166v639h-175v71h175v232h75v-232h175v-71h-175v-639h-75z" />
    <glyph glyph-name="daggerdbl" unicode="&#x2021;" horiz-adv-x="541" 
d="M233 -166v258h-175v72h175v309h-175v71h175v232h75v-232h175v-71h-175v-309h175v-72h-175v-258h-75z" />
    <glyph glyph-name="bullet" unicode="&#x2022;" horiz-adv-x="342" 
d="M100 225v158h142v-158h-142z" />
    <glyph glyph-name="ellipsis" unicode="&#x2026;" horiz-adv-x="683" 
d="M69 0v111h100v-111h-100zM291 0v111h100v-111h-100zM514 0v111h100v-111h-100z" />
    <glyph glyph-name="perthousand" unicode="&#x2030;" horiz-adv-x="1551" 
d="M244 284q-103 0 -151.5 62.5t-48.5 171.5t48.5 172t151.5 63q101 0 149.5 -63t48.5 -172t-48.5 -171.5t-149.5 -62.5zM244 346q129 0 129 172q0 171 -129 171q-130 0 -130 -171q0 -172 130 -172zM865 -10q-102 0 -150 62.5t-48 171.5t48 172t150 63t150.5 -63t48.5 -172
t-48.5 -171.5t-150.5 -62.5zM865 52q129 0 129 172q0 171 -129 171t-129 -171q0 -172 129 -172zM1309 -10q-103 0 -151 62.5t-48 171.5t48.5 172t150.5 63t150 -63t48 -172t-48 -171.5t-150 -62.5zM1309 52q129 0 129 172q0 171 -129 171q-130 0 -130 -171q0 -172 130 -172z
M311 0l413 742h72l-413 -742h-72z" />
    <glyph glyph-name="guilsinglleft" unicode="&#x2039;" horiz-adv-x="423" 
d="M240 0l-151 275l151 277h69l-146 -277l146 -275h-69z" />
    <glyph glyph-name="guilsinglright" unicode="&#x203a;" horiz-adv-x="423" 
d="M113 0l147 276l-147 276h70l151 -276l-151 -276h-70z" />
    <glyph glyph-name="fraction" unicode="&#x2044;" horiz-adv-x="486" 
d="M0 0l415 741h71l-416 -741h-70z" />
    <glyph glyph-name="fraction" unicode="&#x2215;" horiz-adv-x="486" 
d="M0 0l415 741h71l-416 -741h-70z" />
    <glyph glyph-name="Euro" unicode="&#x20ac;" horiz-adv-x="663" 
d="M39 417v67h116q16 134 78 201.5t186 67.5q105 0 178 -38l-35 -65q-59 32 -142 32q-91 0 -135.5 -50t-57.5 -148h264v-67h-269v-84h269v-67h-264q11 -104 55.5 -156t136.5 -52q87 0 144 35l38 -60q-72 -45 -185 -45q-126 0 -187 69.5t-75 208.5h-115v67h110v40q0 29 1 44
h-111z" />
    <glyph glyph-name="trademark" unicode="&#x2122;" horiz-adv-x="1085" 
d="M487 288v453h67l157 -374l157 374h68v-453h-59v347l-145 -347h-43l-146 347v-347h-56zM222 288v397h-157v56h374v-56h-158v-397h-59z" />
    <glyph glyph-name="partialdiff" unicode="&#x2202;" horiz-adv-x="832" 
d="M126 120q-90 108 -90 251q0 142 90 250q3 -2 7 -6q-87 -106 -87 -244t88 -244zM228 211q-57 70 -57 160t56 160l3.5 -3.5t4.5 -3.5q-54 -67 -54 -153q0 -88 54 -153zM264 243q-45 56 -45 128t45 128q2 -1 4 -3.5t4 -3.5q-43 -53 -43 -121t43 -121q-2 -1 -4 -3.5t-4 -3.5z
M316 289q-28 36 -28 82q0 47 28 81q1 -1 2.5 -2t2.5 -2.5t2 -2.5q-25 -33 -25 -74t26 -75l-3.5 -3.5t-4.5 -3.5zM349 320q-16 22 -16 51t16 51q1 -1 4 -3.5t4 -3.5q-14 -20 -14 -44t14 -44q-3 -2 -8 -7zM378 346q-7 12 -7 25t7 25l6 -5q-5 -10 -5 -20t5 -20q-2 -2 -6 -5z
M416 60q-116 0 -201 77l7 7q84 -74 194 -74q111 0 193 74q1 -1 3.5 -4t3.5 -4q-86 -76 -200 -76zM416 324q-15 0 -27 9l6 6q11 -7 21 -7q13 0 21 7q2 -2 5 -6q-10 -9 -26 -9zM482 319q-3 4 -7 7q14 20 14 45t-14 44l7 7q17 -22 17 -51t-17 -52zM292 269q-35 45 -35 102
q0 58 36 102l7 -7q-33 -43 -33 -95t33 -95q-5 -5 -8 -7zM416 -17q-144 0 -252 97l7 8q105 -95 245 -95q139 0 244 94l2 -1l4 -4l1 -2q-107 -97 -251 -97zM416 121q-92 0 -161 61l7 8q65 -59 154 -59t153 59q1 -2 3.5 -4t3.5 -4q-67 -61 -160 -61zM416 170q-72 0 -129 49l7 7
q52 -46 122 -46t121 46q1 -2 3.5 -4.5l3.5 -3.5q-54 -48 -128 -48zM416 209q-57 0 -103 38l7 8q43 -36 96 -36t96 36q2 -2 6 -8q-45 -38 -102 -38zM416 265q-37 0 -66 24l7 8q25 -22 59 -22q33 0 58 22q1 -1 3.5 -4t3.5 -4q-29 -24 -65 -24zM358 445l-8 8q29 24 66 24
t66 -24l-8 -8q-25 22 -58 22t-58 -22zM570 552q-65 59 -154 59q-87 0 -153 -58l-7 7q69 61 160 61q92 0 161 -61q-2 -3 -7 -8zM454 346l-6 5q5 10 5 20t-5 20l6 5q7 -12 7 -25t-7 -25zM468 333q-5 5 -8 7q10 15 10 31t-10 31l8 7q12 -16 12 -38q0 -21 -12 -38zM498 306
q-3 2 -8 7q19 25 19 58t-19 58l7 7q22 -28 22 -65q0 -34 -21 -65zM540 269l-3.5 3.5t-4.5 3.5q33 43 33 95q0 53 -34 95l8 7q36 -44 36 -102q0 -57 -35 -102zM568 243q-5 5 -8 7q43 53 43 121t-43 121l8 7q45 -56 45 -128t-45 -128zM604 211q-3 2 -8 7q55 66 55 153
q0 89 -55 153l8 7q57 -68 57 -160t-57 -160zM649 171q-1 1 -3.5 3t-3.5 3q69 85 69 194q0 110 -70 193l8 7q72 -86 72 -200t-72 -200zM706 120q-3 3 -8 7q88 106 88 244t-88 244l8 7q90 -108 90 -251q0 -142 -90 -251zM183 170q-72 88 -72 201t71 200q1 -1 3.5 -3t4.5 -4
q-69 -83 -69 -193q0 -111 69 -194zM334 306q-21 29 -21 65t21 65q3 -2 8 -7q-19 -25 -19 -58q0 -32 19 -57zM364 333q-12 17 -12 38t12 38l7 -7q-9 -16 -9 -31t9 -31zM395 403l-5 6q10 9 26 9t26 -9l-5 -6q-10 7 -21 7q-13 0 -21 -7zM384 416l-7 7q17 14 39 14q21 0 38 -14
q-4 -4 -6 -7q-14 12 -32 12q-17 0 -32 -12zM371 430l-7 8q22 19 52 19t52 -19l-7 -8q-19 17 -45 17t-45 -17zM295 516l-7 8q54 48 128 48t128 -49l-2 -1l-2 -4l-2 -2q-52 46 -122 46t-121 -46zM416 240q-48 0 -83 30l7 8q35 -28 76 -28q42 0 75 28l7 -7q-36 -31 -82 -31z
M416 285q-29 0 -53 19l7 8q22 -17 46 -17q25 0 45 17l7 -8q-22 -19 -52 -19zM416 305q-21 0 -40 14l7 7q17 -12 33 -12q17 0 32 12l7 -7q-17 -14 -39 -14zM341 464l-7 7q36 31 82 31q47 0 82 -30l-7 -8q-33 28 -75 28t-75 -28zM320 487l-7 8q44 38 103 38q58 0 102 -39
l-6 -7q-41 36 -96 36q-53 0 -96 -36zM610 597q-81 75 -194 75q-110 0 -194 -74l-7 7q87 77 201 77t201 -77zM172 654l-7 8q107 97 251 97t252 -97l-7 -8q-105 95 -245 95q-139 0 -244 -95zM516 290l-7 7q25 33 25 74t-26 75l8 7q28 -36 28 -82q0 -47 -28 -81z" />
    <glyph glyph-name="product" unicode="&#x220f;" horiz-adv-x="832" 
d="M126 120q-90 108 -90 251q0 142 90 250q3 -2 7 -6q-87 -106 -87 -244t88 -244zM228 211q-57 70 -57 160t56 160l3.5 -3.5t4.5 -3.5q-54 -67 -54 -153q0 -88 54 -153zM264 243q-45 56 -45 128t45 128q2 -1 4 -3.5t4 -3.5q-43 -53 -43 -121t43 -121q-2 -1 -4 -3.5t-4 -3.5z
M316 289q-28 36 -28 82q0 47 28 81q1 -1 2.5 -2t2.5 -2.5t2 -2.5q-25 -33 -25 -74t26 -75l-3.5 -3.5t-4.5 -3.5zM349 320q-16 22 -16 51t16 51q1 -1 4 -3.5t4 -3.5q-14 -20 -14 -44t14 -44q-3 -2 -8 -7zM378 346q-7 12 -7 25t7 25l6 -5q-5 -10 -5 -20t5 -20q-2 -2 -6 -5z
M416 60q-116 0 -201 77l7 7q84 -74 194 -74q111 0 193 74q1 -1 3.5 -4t3.5 -4q-86 -76 -200 -76zM416 324q-15 0 -27 9l6 6q11 -7 21 -7q13 0 21 7q2 -2 5 -6q-10 -9 -26 -9zM482 319q-3 4 -7 7q14 20 14 45t-14 44l7 7q17 -22 17 -51t-17 -52zM292 269q-35 45 -35 102
q0 58 36 102l7 -7q-33 -43 -33 -95t33 -95q-5 -5 -8 -7zM416 -17q-144 0 -252 97l7 8q105 -95 245 -95q139 0 244 94l2 -1l4 -4l1 -2q-107 -97 -251 -97zM416 121q-92 0 -161 61l7 8q65 -59 154 -59t153 59q1 -2 3.5 -4t3.5 -4q-67 -61 -160 -61zM416 170q-72 0 -129 49l7 7
q52 -46 122 -46t121 46q1 -2 3.5 -4.5l3.5 -3.5q-54 -48 -128 -48zM416 209q-57 0 -103 38l7 8q43 -36 96 -36t96 36q2 -2 6 -8q-45 -38 -102 -38zM416 265q-37 0 -66 24l7 8q25 -22 59 -22q33 0 58 22q1 -1 3.5 -4t3.5 -4q-29 -24 -65 -24zM358 445l-8 8q29 24 66 24
t66 -24l-8 -8q-25 22 -58 22t-58 -22zM570 552q-65 59 -154 59q-87 0 -153 -58l-7 7q69 61 160 61q92 0 161 -61q-2 -3 -7 -8zM454 346l-6 5q5 10 5 20t-5 20l6 5q7 -12 7 -25t-7 -25zM468 333q-5 5 -8 7q10 15 10 31t-10 31l8 7q12 -16 12 -38q0 -21 -12 -38zM498 306
q-3 2 -8 7q19 25 19 58t-19 58l7 7q22 -28 22 -65q0 -34 -21 -65zM540 269l-3.5 3.5t-4.5 3.5q33 43 33 95q0 53 -34 95l8 7q36 -44 36 -102q0 -57 -35 -102zM568 243q-5 5 -8 7q43 53 43 121t-43 121l8 7q45 -56 45 -128t-45 -128zM604 211q-3 2 -8 7q55 66 55 153
q0 89 -55 153l8 7q57 -68 57 -160t-57 -160zM649 171q-1 1 -3.5 3t-3.5 3q69 85 69 194q0 110 -70 193l8 7q72 -86 72 -200t-72 -200zM706 120q-3 3 -8 7q88 106 88 244t-88 244l8 7q90 -108 90 -251q0 -142 -90 -251zM183 170q-72 88 -72 201t71 200q1 -1 3.5 -3t4.5 -4
q-69 -83 -69 -193q0 -111 69 -194zM334 306q-21 29 -21 65t21 65q3 -2 8 -7q-19 -25 -19 -58q0 -32 19 -57zM364 333q-12 17 -12 38t12 38l7 -7q-9 -16 -9 -31t9 -31zM395 403l-5 6q10 9 26 9t26 -9l-5 -6q-10 7 -21 7q-13 0 -21 -7zM384 416l-7 7q17 14 39 14q21 0 38 -14
q-4 -4 -6 -7q-14 12 -32 12q-17 0 -32 -12zM371 430l-7 8q22 19 52 19t52 -19l-7 -8q-19 17 -45 17t-45 -17zM295 516l-7 8q54 48 128 48t128 -49l-2 -1l-2 -4l-2 -2q-52 46 -122 46t-121 -46zM416 240q-48 0 -83 30l7 8q35 -28 76 -28q42 0 75 28l7 -7q-36 -31 -82 -31z
M416 285q-29 0 -53 19l7 8q22 -17 46 -17q25 0 45 17l7 -8q-22 -19 -52 -19zM416 305q-21 0 -40 14l7 7q17 -12 33 -12q17 0 32 12l7 -7q-17 -14 -39 -14zM341 464l-7 7q36 31 82 31q47 0 82 -30l-7 -8q-33 28 -75 28t-75 -28zM320 487l-7 8q44 38 103 38q58 0 102 -39
l-6 -7q-41 36 -96 36q-53 0 -96 -36zM610 597q-81 75 -194 75q-110 0 -194 -74l-7 7q87 77 201 77t201 -77zM172 654l-7 8q107 97 251 97t252 -97l-7 -8q-105 95 -245 95q-139 0 -244 -95zM516 290l-7 7q25 33 25 74t-26 75l8 7q28 -36 28 -82q0 -47 -28 -81z" />
    <glyph glyph-name="summation" unicode="&#x2211;" horiz-adv-x="832" 
d="M126 120q-90 108 -90 251q0 142 90 250q3 -2 7 -6q-87 -106 -87 -244t88 -244zM228 211q-57 70 -57 160t56 160l3.5 -3.5t4.5 -3.5q-54 -67 -54 -153q0 -88 54 -153zM264 243q-45 56 -45 128t45 128q2 -1 4 -3.5t4 -3.5q-43 -53 -43 -121t43 -121q-2 -1 -4 -3.5t-4 -3.5z
M316 289q-28 36 -28 82q0 47 28 81q1 -1 2.5 -2t2.5 -2.5t2 -2.5q-25 -33 -25 -74t26 -75l-3.5 -3.5t-4.5 -3.5zM349 320q-16 22 -16 51t16 51q1 -1 4 -3.5t4 -3.5q-14 -20 -14 -44t14 -44q-3 -2 -8 -7zM378 346q-7 12 -7 25t7 25l6 -5q-5 -10 -5 -20t5 -20q-2 -2 -6 -5z
M416 60q-116 0 -201 77l7 7q84 -74 194 -74q111 0 193 74q1 -1 3.5 -4t3.5 -4q-86 -76 -200 -76zM416 324q-15 0 -27 9l6 6q11 -7 21 -7q13 0 21 7q2 -2 5 -6q-10 -9 -26 -9zM482 319q-3 4 -7 7q14 20 14 45t-14 44l7 7q17 -22 17 -51t-17 -52zM292 269q-35 45 -35 102
q0 58 36 102l7 -7q-33 -43 -33 -95t33 -95q-5 -5 -8 -7zM416 -17q-144 0 -252 97l7 8q105 -95 245 -95q139 0 244 94l2 -1l4 -4l1 -2q-107 -97 -251 -97zM416 121q-92 0 -161 61l7 8q65 -59 154 -59t153 59q1 -2 3.5 -4t3.5 -4q-67 -61 -160 -61zM416 170q-72 0 -129 49l7 7
q52 -46 122 -46t121 46q1 -2 3.5 -4.5l3.5 -3.5q-54 -48 -128 -48zM416 209q-57 0 -103 38l7 8q43 -36 96 -36t96 36q2 -2 6 -8q-45 -38 -102 -38zM416 265q-37 0 -66 24l7 8q25 -22 59 -22q33 0 58 22q1 -1 3.5 -4t3.5 -4q-29 -24 -65 -24zM358 445l-8 8q29 24 66 24
t66 -24l-8 -8q-25 22 -58 22t-58 -22zM570 552q-65 59 -154 59q-87 0 -153 -58l-7 7q69 61 160 61q92 0 161 -61q-2 -3 -7 -8zM454 346l-6 5q5 10 5 20t-5 20l6 5q7 -12 7 -25t-7 -25zM468 333q-5 5 -8 7q10 15 10 31t-10 31l8 7q12 -16 12 -38q0 -21 -12 -38zM498 306
q-3 2 -8 7q19 25 19 58t-19 58l7 7q22 -28 22 -65q0 -34 -21 -65zM540 269l-3.5 3.5t-4.5 3.5q33 43 33 95q0 53 -34 95l8 7q36 -44 36 -102q0 -57 -35 -102zM568 243q-5 5 -8 7q43 53 43 121t-43 121l8 7q45 -56 45 -128t-45 -128zM604 211q-3 2 -8 7q55 66 55 153
q0 89 -55 153l8 7q57 -68 57 -160t-57 -160zM649 171q-1 1 -3.5 3t-3.5 3q69 85 69 194q0 110 -70 193l8 7q72 -86 72 -200t-72 -200zM706 120q-3 3 -8 7q88 106 88 244t-88 244l8 7q90 -108 90 -251q0 -142 -90 -251zM183 170q-72 88 -72 201t71 200q1 -1 3.5 -3t4.5 -4
q-69 -83 -69 -193q0 -111 69 -194zM334 306q-21 29 -21 65t21 65q3 -2 8 -7q-19 -25 -19 -58q0 -32 19 -57zM364 333q-12 17 -12 38t12 38l7 -7q-9 -16 -9 -31t9 -31zM395 403l-5 6q10 9 26 9t26 -9l-5 -6q-10 7 -21 7q-13 0 -21 -7zM384 416l-7 7q17 14 39 14q21 0 38 -14
q-4 -4 -6 -7q-14 12 -32 12q-17 0 -32 -12zM371 430l-7 8q22 19 52 19t52 -19l-7 -8q-19 17 -45 17t-45 -17zM295 516l-7 8q54 48 128 48t128 -49l-2 -1l-2 -4l-2 -2q-52 46 -122 46t-121 -46zM416 240q-48 0 -83 30l7 8q35 -28 76 -28q42 0 75 28l7 -7q-36 -31 -82 -31z
M416 285q-29 0 -53 19l7 8q22 -17 46 -17q25 0 45 17l7 -8q-22 -19 -52 -19zM416 305q-21 0 -40 14l7 7q17 -12 33 -12q17 0 32 12l7 -7q-17 -14 -39 -14zM341 464l-7 7q36 31 82 31q47 0 82 -30l-7 -8q-33 28 -75 28t-75 -28zM320 487l-7 8q44 38 103 38q58 0 102 -39
l-6 -7q-41 36 -96 36q-53 0 -96 -36zM610 597q-81 75 -194 75q-110 0 -194 -74l-7 7q87 77 201 77t201 -77zM172 654l-7 8q107 97 251 97t252 -97l-7 -8q-105 95 -245 95q-139 0 -244 -95zM516 290l-7 7q25 33 25 74t-26 75l8 7q28 -36 28 -82q0 -47 -28 -81z" />
    <glyph glyph-name="minus" unicode="&#x2212;" horiz-adv-x="696" 
d="M106 317v72h483v-72h-483z" />
    <glyph glyph-name="radical" unicode="&#x221a;" horiz-adv-x="662" 
d="M227 -5l-163 413h79l125 -318l255 651h75l-293 -746h-78z" />
    <glyph glyph-name="infinity" unicode="&#x221e;" horiz-adv-x="926" 
d="M452 0v483h-242v-483h-75v483h-104v69h104v51q0 84 36 128.5t128 44.5h60v-67h-52q-55 0 -76 -27.5t-21 -78.5v-51h242v51q0 84 36 128.5t128 44.5h61v-67h-53q-54 0 -75 -27.5t-21 -78.5v-51h149v-69h-149v-483h-76zM770 0v552h75v-552h-75zM769 625v108h77v-108h-77z
" />
    <glyph glyph-name="integral" unicode="&#x222b;" horiz-adv-x="832" 
d="M126 120q-90 108 -90 251q0 142 90 250q3 -2 7 -6q-87 -106 -87 -244t88 -244zM228 211q-57 70 -57 160t56 160l3.5 -3.5t4.5 -3.5q-54 -67 -54 -153q0 -88 54 -153zM264 243q-45 56 -45 128t45 128q2 -1 4 -3.5t4 -3.5q-43 -53 -43 -121t43 -121q-2 -1 -4 -3.5t-4 -3.5z
M316 289q-28 36 -28 82q0 47 28 81q1 -1 2.5 -2t2.5 -2.5t2 -2.5q-25 -33 -25 -74t26 -75l-3.5 -3.5t-4.5 -3.5zM349 320q-16 22 -16 51t16 51q1 -1 4 -3.5t4 -3.5q-14 -20 -14 -44t14 -44q-3 -2 -8 -7zM378 346q-7 12 -7 25t7 25l6 -5q-5 -10 -5 -20t5 -20q-2 -2 -6 -5z
M416 60q-116 0 -201 77l7 7q84 -74 194 -74q111 0 193 74q1 -1 3.5 -4t3.5 -4q-86 -76 -200 -76zM416 324q-15 0 -27 9l6 6q11 -7 21 -7q13 0 21 7q2 -2 5 -6q-10 -9 -26 -9zM482 319q-3 4 -7 7q14 20 14 45t-14 44l7 7q17 -22 17 -51t-17 -52zM292 269q-35 45 -35 102
q0 58 36 102l7 -7q-33 -43 -33 -95t33 -95q-5 -5 -8 -7zM416 -17q-144 0 -252 97l7 8q105 -95 245 -95q139 0 244 94l2 -1l4 -4l1 -2q-107 -97 -251 -97zM416 121q-92 0 -161 61l7 8q65 -59 154 -59t153 59q1 -2 3.5 -4t3.5 -4q-67 -61 -160 -61zM416 170q-72 0 -129 49l7 7
q52 -46 122 -46t121 46q1 -2 3.5 -4.5l3.5 -3.5q-54 -48 -128 -48zM416 209q-57 0 -103 38l7 8q43 -36 96 -36t96 36q2 -2 6 -8q-45 -38 -102 -38zM416 265q-37 0 -66 24l7 8q25 -22 59 -22q33 0 58 22q1 -1 3.5 -4t3.5 -4q-29 -24 -65 -24zM358 445l-8 8q29 24 66 24
t66 -24l-8 -8q-25 22 -58 22t-58 -22zM570 552q-65 59 -154 59q-87 0 -153 -58l-7 7q69 61 160 61q92 0 161 -61q-2 -3 -7 -8zM454 346l-6 5q5 10 5 20t-5 20l6 5q7 -12 7 -25t-7 -25zM468 333q-5 5 -8 7q10 15 10 31t-10 31l8 7q12 -16 12 -38q0 -21 -12 -38zM498 306
q-3 2 -8 7q19 25 19 58t-19 58l7 7q22 -28 22 -65q0 -34 -21 -65zM540 269l-3.5 3.5t-4.5 3.5q33 43 33 95q0 53 -34 95l8 7q36 -44 36 -102q0 -57 -35 -102zM568 243q-5 5 -8 7q43 53 43 121t-43 121l8 7q45 -56 45 -128t-45 -128zM604 211q-3 2 -8 7q55 66 55 153
q0 89 -55 153l8 7q57 -68 57 -160t-57 -160zM649 171q-1 1 -3.5 3t-3.5 3q69 85 69 194q0 110 -70 193l8 7q72 -86 72 -200t-72 -200zM706 120q-3 3 -8 7q88 106 88 244t-88 244l8 7q90 -108 90 -251q0 -142 -90 -251zM183 170q-72 88 -72 201t71 200q1 -1 3.5 -3t4.5 -4
q-69 -83 -69 -193q0 -111 69 -194zM334 306q-21 29 -21 65t21 65q3 -2 8 -7q-19 -25 -19 -58q0 -32 19 -57zM364 333q-12 17 -12 38t12 38l7 -7q-9 -16 -9 -31t9 -31zM395 403l-5 6q10 9 26 9t26 -9l-5 -6q-10 7 -21 7q-13 0 -21 -7zM384 416l-7 7q17 14 39 14q21 0 38 -14
q-4 -4 -6 -7q-14 12 -32 12q-17 0 -32 -12zM371 430l-7 8q22 19 52 19t52 -19l-7 -8q-19 17 -45 17t-45 -17zM295 516l-7 8q54 48 128 48t128 -49l-2 -1l-2 -4l-2 -2q-52 46 -122 46t-121 -46zM416 240q-48 0 -83 30l7 8q35 -28 76 -28q42 0 75 28l7 -7q-36 -31 -82 -31z
M416 285q-29 0 -53 19l7 8q22 -17 46 -17q25 0 45 17l7 -8q-22 -19 -52 -19zM416 305q-21 0 -40 14l7 7q17 -12 33 -12q17 0 32 12l7 -7q-17 -14 -39 -14zM341 464l-7 7q36 31 82 31q47 0 82 -30l-7 -8q-33 28 -75 28t-75 -28zM320 487l-7 8q44 38 103 38q58 0 102 -39
l-6 -7q-41 36 -96 36q-53 0 -96 -36zM610 597q-81 75 -194 75q-110 0 -194 -74l-7 7q87 77 201 77t201 -77zM172 654l-7 8q107 97 251 97t252 -97l-7 -8q-105 95 -245 95q-139 0 -244 -95zM516 290l-7 7q25 33 25 74t-26 75l8 7q28 -36 28 -82q0 -47 -28 -81z" />
    <glyph glyph-name="approxequal" unicode="&#x2248;" horiz-adv-x="696" 
d="M157 396l-45 37q71 90 144 90q44 0 100.5 -29.5t86.5 -29.5q40 0 95 66l45 -39q-77 -91 -140 -91q-39 0 -95 29.5t-91 29.5q-51 0 -100 -63zM157 171l-45 37q70 89 144 89q44 0 100.5 -29.5t86.5 -29.5q40 0 95 66l45 -38q-78 -92 -140 -92q-39 0 -95 29.5t-91 29.5
q-50 0 -100 -62z" />
    <glyph glyph-name="notequal" unicode="&#x2260;" horiz-adv-x="701" 
d="M452 0v483h-242v-483h-75v483h-104v69h104v51q0 84 36 128.5t128 44.5h60v-67h-52q-55 0 -76 -27.5t-21 -78.5v-51h242v51q0 84 36 128.5t128 44.5h61v-67h-53q-54 0 -75 -27.5t-21 -78.5v-51h149v-69h-149v-483h-76z" />
    <glyph glyph-name="lessequal" unicode="&#x2264;" horiz-adv-x="696" 
d="M552 107l-448 218v57l448 218v-72l-371 -176l371 -175v-70zM104 17v69h448v-69h-448z" />
    <glyph glyph-name="greaterequal" unicode="&#x2265;" horiz-adv-x="696" 
d="M144 107v70l371 175l-371 176v72l447 -218v-57zM144 17v69h447v-69h-447z" />
    <glyph glyph-name="lozenge" unicode="&#x25ca;" horiz-adv-x="727" 
d="M598 -1q-88 0 -117.5 33.5t-29.5 109.5v341h-241v-483h-75v483h-104v69h104v51q0 84 36 128.5t128 44.5h60v-67h-52q-55 0 -76 -27.5t-21 -78.5v-51h243l13 166l60 11v-177h152v-69h-152v-332q0 -44 15.5 -64t68.5 -20h68v-67q-9 -1 -80 -1z" />
    <glyph glyph-name="apple" unicode="&#xf8ff;" horiz-adv-x="832" 
d="M126 120q-90 108 -90 251q0 142 90 250q3 -2 7 -6q-87 -106 -87 -244t88 -244zM228 211q-57 70 -57 160t56 160l3.5 -3.5t4.5 -3.5q-54 -67 -54 -153q0 -88 54 -153zM264 243q-45 56 -45 128t45 128q2 -1 4 -3.5t4 -3.5q-43 -53 -43 -121t43 -121q-2 -1 -4 -3.5t-4 -3.5z
M316 289q-28 36 -28 82q0 47 28 81q1 -1 2.5 -2t2.5 -2.5t2 -2.5q-25 -33 -25 -74t26 -75l-3.5 -3.5t-4.5 -3.5zM349 320q-16 22 -16 51t16 51q1 -1 4 -3.5t4 -3.5q-14 -20 -14 -44t14 -44q-3 -2 -8 -7zM378 346q-7 12 -7 25t7 25l6 -5q-5 -10 -5 -20t5 -20q-2 -2 -6 -5z
M416 60q-116 0 -201 77l7 7q84 -74 194 -74q111 0 193 74q1 -1 3.5 -4t3.5 -4q-86 -76 -200 -76zM416 324q-15 0 -27 9l6 6q11 -7 21 -7q13 0 21 7q2 -2 5 -6q-10 -9 -26 -9zM482 319q-3 4 -7 7q14 20 14 45t-14 44l7 7q17 -22 17 -51t-17 -52zM292 269q-35 45 -35 102
q0 58 36 102l7 -7q-33 -43 -33 -95t33 -95q-5 -5 -8 -7zM416 -17q-144 0 -252 97l7 8q105 -95 245 -95q139 0 244 94l2 -1l4 -4l1 -2q-107 -97 -251 -97zM416 121q-92 0 -161 61l7 8q65 -59 154 -59t153 59q1 -2 3.5 -4t3.5 -4q-67 -61 -160 -61zM416 170q-72 0 -129 49l7 7
q52 -46 122 -46t121 46q1 -2 3.5 -4.5l3.5 -3.5q-54 -48 -128 -48zM416 209q-57 0 -103 38l7 8q43 -36 96 -36t96 36q2 -2 6 -8q-45 -38 -102 -38zM416 265q-37 0 -66 24l7 8q25 -22 59 -22q33 0 58 22q1 -1 3.5 -4t3.5 -4q-29 -24 -65 -24zM358 445l-8 8q29 24 66 24
t66 -24l-8 -8q-25 22 -58 22t-58 -22zM570 552q-65 59 -154 59q-87 0 -153 -58l-7 7q69 61 160 61q92 0 161 -61q-2 -3 -7 -8zM454 346l-6 5q5 10 5 20t-5 20l6 5q7 -12 7 -25t-7 -25zM468 333q-5 5 -8 7q10 15 10 31t-10 31l8 7q12 -16 12 -38q0 -21 -12 -38zM498 306
q-3 2 -8 7q19 25 19 58t-19 58l7 7q22 -28 22 -65q0 -34 -21 -65zM540 269l-3.5 3.5t-4.5 3.5q33 43 33 95q0 53 -34 95l8 7q36 -44 36 -102q0 -57 -35 -102zM568 243q-5 5 -8 7q43 53 43 121t-43 121l8 7q45 -56 45 -128t-45 -128zM604 211q-3 2 -8 7q55 66 55 153
q0 89 -55 153l8 7q57 -68 57 -160t-57 -160zM649 171q-1 1 -3.5 3t-3.5 3q69 85 69 194q0 110 -70 193l8 7q72 -86 72 -200t-72 -200zM706 120q-3 3 -8 7q88 106 88 244t-88 244l8 7q90 -108 90 -251q0 -142 -90 -251zM183 170q-72 88 -72 201t71 200q1 -1 3.5 -3t4.5 -4
q-69 -83 -69 -193q0 -111 69 -194zM334 306q-21 29 -21 65t21 65q3 -2 8 -7q-19 -25 -19 -58q0 -32 19 -57zM364 333q-12 17 -12 38t12 38l7 -7q-9 -16 -9 -31t9 -31zM395 403l-5 6q10 9 26 9t26 -9l-5 -6q-10 7 -21 7q-13 0 -21 -7zM384 416l-7 7q17 14 39 14q21 0 38 -14
q-4 -4 -6 -7q-14 12 -32 12q-17 0 -32 -12zM371 430l-7 8q22 19 52 19t52 -19l-7 -8q-19 17 -45 17t-45 -17zM295 516l-7 8q54 48 128 48t128 -49l-2 -1l-2 -4l-2 -2q-52 46 -122 46t-121 -46zM416 240q-48 0 -83 30l7 8q35 -28 76 -28q42 0 75 28l7 -7q-36 -31 -82 -31z
M416 285q-29 0 -53 19l7 8q22 -17 46 -17q25 0 45 17l7 -8q-22 -19 -52 -19zM416 305q-21 0 -40 14l7 7q17 -12 33 -12q17 0 32 12l7 -7q-17 -14 -39 -14zM341 464l-7 7q36 31 82 31q47 0 82 -30l-7 -8q-33 28 -75 28t-75 -28zM320 487l-7 8q44 38 103 38q58 0 102 -39
l-6 -7q-41 36 -96 36q-53 0 -96 -36zM610 597q-81 75 -194 75q-110 0 -194 -74l-7 7q87 77 201 77t201 -77zM172 654l-7 8q107 97 251 97t252 -97l-7 -8q-105 95 -245 95q-139 0 -244 -95zM516 290l-7 7q25 33 25 74t-26 75l8 7q28 -36 28 -82q0 -47 -28 -81z" />
    </font>
</defs>
</svg>
